<?xml version="1.0" standalone="no"?>
<!DOCTYPE svg PUBLIC "-//W3C//DTD SVG 1.1//EN" "http://www.w3.org/Graphics/SVG/1.1/DTD/svg11.dtd" >
<!--
2013-9-30: Created.
-->
<svg>
<metadata>
Created by iconfont
</metadata>
<defs>

<font id="iconfont" horiz-adv-x="1024" >
  <font-face
    font-family="iconfont"
    font-weight="500"
    font-stretch="normal"
    units-per-em="1024"
    ascent="896"
    descent="-128"
  />
    <missing-glyph />
    
    <glyph glyph-name="zhongyingwen" unicode="&#58909;" d="M651.300262 505.958912h325.223765a47.760133 47.760133 0 0 0 46.622987-48.89728v-536.164353a47.760133 47.760133 0 0 0-46.622987-48.897279h-557.201555a47.760133 47.760133 0 0 0-46.622987 48.897279v341.143809H46.907147a47.760133 47.760133 0 0 0-46.622987 48.89728V847.102721A47.760133 47.760133 0 0 0 46.907147 896h557.770128a47.760133 47.760133 0 0 0 46.622987-48.897279zM46.907147 310.938368h557.770128V847.102721H46.907147v-536.164353zM682.571778 327.426985l-102.343143-278.600777h45.485841l25.017213 71.6402h113.714603l25.017213-71.6402h43.780122L730.331911 327.426985z m-22.174348-170.571904l44.348696 126.223209 47.19156-126.223209zM306.176442 782.285397H341.427969v-71.071627h135.320378v-188.197668h-35.251527v22.174348H341.427969v-130.771794h-33.545808v130.771794H210.656176v-22.174348h-35.251527V711.21377h132.477512zM210.656176 581.579123h96.657412V674.825097H210.656176z m130.771793 0h100.068851V674.825097H341.427969z"  horiz-adv-x="1024" />

    
    <glyph glyph-name="caidan" unicode="&#59537;" d="M883 198.4c21.7 0 39.7-17.9 39.7-39.6 0-22.5-18-40.3-39.7-40.3H307.3c-21.7 0-39.7 17.9-39.7 40.3 0 21.7 18 39.6 39.7 39.6H883zM153.7 665.8c28.5 0 51-23.2 51-51 0-28.5-22.5-51-51-51-27.7 0-51 22.5-51 51 0 27.8 23.2 51 51 51z m153.6-97c-21.7 0-39.7 18.2-39.7 40 0 21.7 18 40 39.7 40H883c21.7 0 39.7-18.2 39.7-40 0-21.7-18-40-39.7-40H307.3z m0-239.8c-21.7 0-39.7 18.2-39.7 40 0 21.7 18 40 39.7 40H883c21.7 0 39.7-18.2 39.7-40 0-21.7-18-40-39.7-40H307.3zM153.7 434.2c28.5 0 51-22.5 51-51 0-27.7-22.5-51-51-51-27.7 0-51 23.2-51 51 0 28.5 23.2 51 51 51z m0-230.9c28.5 0 51-23.2 51-51 0-28.5-22.5-51-51-51-27.7 0-51 22.5-51 51 0 27.8 23.2 51 51 51z m0 0"  horiz-adv-x="1024" />

    
    <glyph glyph-name="rizhi1" unicode="&#59055;" d="M681.792758 858.653539C681.792758 879.313283 698.479473 896 719.211456 896 739.943439 896 756.630154 879.313283 756.630154 858.653539L756.630154 733.792112C756.630154 712.987894 739.871204 696.301178 719.211456 696.301178 698.551714 696.301178 681.720523 713.060131 681.792758 733.719876L681.792758 858.653539ZM580.011013 858.292355 580.011013 751.851329 654.776169 751.851329 654.776169 858.292355 580.011013 858.292355ZM552.994424 733.792112 552.994424 858.653539C552.994424 879.313283 536.307704 896 515.575727 896 494.843744 896 478.229264 879.313283 478.229264 858.653539L478.229264 733.792112C478.157027 713.060131 494.988218 696.301178 515.575727 696.301178 536.235469 696.301178 552.994424 712.987894 552.994424 733.792112ZM349.430928 733.792112 349.430928 858.653539C349.430928 879.313283 332.744211 896 312.01223 896 291.280249 896 274.593532 879.313283 274.593532 858.653539L274.593532 733.792112C274.521296 713.060131 291.280249 696.301178 312.01223 696.301178 332.671975 696.301178 349.430928 712.987894 349.430928 733.792112ZM783.646743 858.292355 783.646743 751.851329 917.610016 751.851329 917.610016-21.299875 299.515252-21.299875 299.515252 121.62077 106.534458 121.62077 106.534458 751.779092 247.64918 751.779092 247.64918 858.220118 104.222879 858.220118C57.991283 858.220118 0.021196 800.250031 0.021196 754.018435L0.021196 108.762611C0.021196 89.836552 8.761857 72.860886 22.414625 61.808646L241.147862-115.171685C252.777998-124.273526 267.008661-128.535504 281.022614-127.957608L919.77712-127.957608C966.008719-127.957608 1023.978804-69.987523 1023.978804-23.755924L1023.978804 754.090672C1023.978804 800.322268 966.008719 858.292355 919.921595 858.292355L783.646743 858.292355ZM376.447517 858.292355 376.447517 751.851329 451.212675 751.851329 451.212675 858.292355 376.447517 858.292355ZM539.856342 256.920425 522.519495 239.583579 704.556401 57.546668C705.278772 56.824302 706.145614 56.318641 707.08469 56.101931L847.079744 18.610998C849.030138 18.105342 851.125007 18.610998 852.569744 20.055735 854.014482 21.500473 854.592378 23.595342 854.014482 25.545735L816.523549 165.540789C816.234598 166.479866 815.728942 167.418948 815.078811 168.069079L633.041901 350.105984 582.620569 299.684653 764.657475 117.647743 721.893252 74.88352 539.856342 256.920425 539.856342 256.920425ZM506.410672 624.389375C471.375791 659.424256 424.855248 677.989131 377.395625 677.989131 353.846406 677.989131 330.080477 673.438209 307.3981 664.047416 304.942047 663.0361 303.208362 660.94123 302.702704 658.340703 302.197046 655.88465 303.063888 653.139649 304.86981 651.333727L417.848272 538.355265 400.078002 472.475241 334.125741 454.849445 221.291753 567.683434C219.774779 569.200408 217.752147 569.995013 215.657277 569.995013 215.223856 569.995013 214.718198 569.922776 214.21254 569.85054 211.68425 569.344882 209.517144 567.611197 208.578064 565.22738 180.188975 496.674592 195.792138 418.586538 248.163868 366.214809 283.776644 330.602034 330.513898 312.831762 377.251152 312.831762 398.05537 312.831762 418.859588 316.371368 438.724727 323.378346L508.866726 253.236344 619.389136 363.758754 549.319374 433.900753C572.14622 498.191566 557.987795 572.956725 506.410672 624.389375L506.410672 624.389375Z"  horiz-adv-x="1024" />

    
    <glyph glyph-name="suoping" unicode="&#59113;" d="M812.8 499.2h-80c0 128-99.2 227.2-224 227.2s-224-99.2-224-227.2H204.8c0 153.6 137.6 307.2 304 307.2s304-150.4 304-307.2z m102.4-131.2c0 44.8-35.2 80-80 80H192c-44.8 0-80-35.2-80-80v-380.8c0-44.8 35.2-80 80-80h643.2c44.8 0 80 35.2 80 80V368zM576 70.4c0-32-25.6-60.8-60.8-60.8h-9.6c-32 0-60.8 25.6-60.8 60.8v163.2c0 32 25.6 60.8 60.8 60.8h9.6c32 0 60.8-25.6 60.8-60.8v-163.2z"  horiz-adv-x="1024" />

    
    <glyph glyph-name="zhuti" unicode="&#58912;" d="M515.1-15.758c-161.393 0-260.494 23.495-302.99 71.794-22.442 25.486-21.333 49.521-20.48 56.291 0.455 6.03 15.53 189.924 28.217 275.655-4.608 3.13-14.393 7.054-20.053 9.33a229.831 229.831 0 0 0-13.881 5.888c-18.717 8.79-57.572 28.046-57.572 28.046-48.298 22.187-76.942 50.404-83.996 83.4-5.66 26.424 3.982 49.18 14.876 61.695a40.847 40.847 0 0 0 4.182 4.125L290.475 774.2a39.908 39.908 0 0 0 63.8-17.607c24.89-73.7 97.025-84.736 137.842-84.736 10.866 0 17.778 0.853 17.835 0.882a42.264 42.264 0 0 0 10.553-0.029s6.77-0.825 17.266-0.825c40.021 0 110.79 10.98 135.253 84.566a39.964 39.964 0 0 0 64.085 17.607L960.91 580.324a37.898 37.898 0 0 0 4.125-4.153c10.78-12.516 20.28-35.3 14.592-61.64-7.055-32.824-35.3-60.984-83.94-83.626 0-0.029-37.49-18.887-55.694-27.563-4.096-1.934-8.761-3.868-13.71-5.888-5.519-2.247-15.104-6.144-19.599-9.244 12.573-86.471 27.392-269.881 28.018-277.703 0.683-5.007 1.735-29.184-20.878-54.813-42.325-48.1-140.032-71.452-298.724-71.452zM271.56 109.596c6.712-7.936 48.952-45.425 243.54-45.425 192.228 0 233.188 37.575 239.531 45.312-2.987 35.925-16.384 195.242-27.25 268.686-9.102 61.582 47.531 84.594 68.836 93.24 3.413 1.395 6.656 2.675 9.472 4.011 17.92 8.534 55.097 27.25 55.154 27.279 24.462 11.434 34.474 20.565 38.4 25.287l-175.36 151.78c-52.793-78.194-144.356-87.809-186.084-87.809-9.927 0-17.835 0.54-22.699 0.967a255.602 255.602 0 0 0-22.983-0.967c-42.325 0-135.253 9.671-188.643 88.292l-178.49-152.292c4.068-4.75 14.11-13.71 37.832-24.604 1.138-0.54 38.855-19.285 57.06-27.819 2.872-1.337 6.172-2.645 9.642-4.039 21.59-8.647 78.905-31.602 69.66-93.411-11.178-74.24-24.945-236.345-27.619-268.488z"  horiz-adv-x="1024" />

    
    <glyph glyph-name="bug" unicode="&#58953;" d="M969.142857 347.428571q0-14.857143-10.857143-25.714285t-25.714285-10.857143h-128q0-97.714286-38.285715-165.714286l118.857143-119.428571q10.857143-10.857143 10.857143-25.714286t-10.857143-25.714286q-10.285714-10.857143-25.714286-10.857143t-25.714285 10.857143l-113.142857 112.571429q-2.857143-2.857143-8.571429-7.428572t-24-16.285714-37.142857-20.857143-46.857143-16.571428-55.428571-7.428572V530.285714H475.428571v-512q-29.142857 0-58 7.714286t-49.714285 18.857143-37.714286 22.285714T305.142857 85.714286l-8.571428 8-104.571429-118.285715q-11.428571-12-27.428571-12-13.714286 0-24.571429 9.142858-10.857143 10.285714-11.714286 25.428571T137.142857 24.571429l115.428572 129.714285q-33.142857 65.142857-33.142858 156.571429H91.428571q-14.857143 0-25.714285 10.857143t-10.857143 25.714285 10.857143 25.714286 25.714285 10.857143h128V552L120.571429 650.857143q-10.857143 10.857143-10.857143 25.714286t10.857143 25.714285 25.714285 10.857143 25.714286-10.857143l98.857143-98.857143h482.285714l98.857143 98.857143q10.857143 10.857143 25.714286 10.857143t25.714285-10.857143 10.857143-25.714285-10.857143-25.714286l-98.857142-98.857143v-168h128q14.857143 0 25.714285-10.857143t10.857143-25.714286z m-274.285714 329.142858H329.142857q0 76 53.428572 129.428571T512 859.428571t129.428571-53.428571T694.857143 676.571429z"  horiz-adv-x="1024" />

    
    <glyph glyph-name="weixin1" unicode="&#59001;" d="M371.226529 692.547633c-187.547442 0-341.167762-127.83631-341.167762-290.156664 0-93.698461 51.116462-170.613985 136.491188-230.204701l-34.122797-102.654378 119.256692 59.831547c42.687363-8.474254 76.915524-17.144184 119.497523-17.144184 10.701945 0 21.32863 0.526819 31.849951 1.369729-6.652967 22.833826-10.521321 46.706237-10.521321 71.481766 0 148.969264 128.001881 269.926827 290.066352 269.926827 11.04814 0 21.990916-0.812806 32.858432-2.016963C685.91789 590.420073 538.980641 692.547633 371.226529 692.547633zM260.398936 462.207464c-25.558231 0-51.372345 17.129132-51.372345 42.702415 0 25.678646 25.814114 42.566947 51.372345 42.566947s42.597051-16.903353 42.597051-42.566947C302.980935 479.336597 285.957167 462.207464 260.398936 462.207464zM499.168203 462.207464c-25.573283 0-51.236877 17.129132-51.236877 42.702415 0 25.678646 25.663595 42.566947 51.236877 42.566947 25.693698 0 42.702415-16.903353 42.702415-42.566947C541.870618 479.336597 524.846849 462.207464 499.168203 462.207464zM993.971337 189.149829c0 136.310564-136.491188 247.484353-289.780365 247.484353-162.320354 0-290.171716-111.173788-290.171716-247.484353 0-136.611604 127.851362-247.559613 290.171716-247.559613 33.972277 0 68.21549 8.549514 102.353339 17.11408l93.593097-51.236877-25.663595 85.269362C942.945187 44.079023 993.971337 112.204201 993.971337 189.149829zM610.10116 231.776984c-16.993665 0-34.137849 16.873249-34.137849 34.107745 0 17.023769 17.144184 34.152901 34.137849 34.152901 25.814114 0 42.702415-17.129132 42.702415-34.152901C652.803575 248.650233 635.915274 231.776984 610.10116 231.776984zM797.769017 231.776984c-16.873249 0-33.897018 16.873249-33.897018 34.107745 0 17.023769 17.023769 34.152901 33.897018 34.152901 25.558231 0 42.702415-17.129132 42.702415-34.152901C840.471432 248.650233 823.327248 231.776984 797.769017 231.776984z"  horiz-adv-x="1024" />

    
    <glyph glyph-name="qq1" unicode="&#58889;" d="M162.797568 319.502336c-30.287872-75.442176-35.29728-147.37408-10.903552-160.73728 16.87552-9.275392 43.149312 11.943936 67.883008 50.542592 9.814016-42.274816 34.000896-80.203776 68.589568-110.866432-36.21888-14.116864-59.94496-37.175296-59.94496-63.24224 0-42.944512 64.079872-77.613056 143.112192-77.613056 71.305216 0 130.373632 28.153856 141.273088 65.247232 2.885632 0 14.209024 0 16.961536 0 11.114496-37.093376 70.053888-65.247232 141.441024-65.247232 79.120384 0 143.11424 34.670592 143.11424 77.613056 0 26.066944-23.683072 48.955392-59.98592 63.24224 34.463744 30.662656 58.81856 68.591616 68.548608 110.866432 24.727552-38.598656 50.880512-59.817984 67.84-50.542592 24.518656 13.3632 19.632128 85.295104-10.94656 160.73728-23.891968 59.068416-56.266752 102.67648-80.953344 112.449536 0.333824 3.592192 0.626688 7.563264 0.626688 11.364352 0 22.892544-6.098944 44.027904-16.498688 61.239296 0.210944 1.376256 0.210944 2.67264 0.210944 4.050944 0 10.569728-2.381824 20.385792-6.475776 28.86656-6.223872 153.76384-101.339136 276.02944-255.35488 276.02944-153.974784 0-249.217024-122.267648-255.440896-276.02944-4.009984-8.605696-6.473728-18.466816-6.473728-28.993536 0-1.378304 0-2.67264 0.167936-4.052992-10.190848-17.084416-16.29184-38.219776-16.29184-61.19424 0-3.844096 0.206848-7.686144 0.4608-11.446272C219.148288 422.094848 186.650624 378.568704 162.797568 319.502336L162.797568 319.502336z"  horiz-adv-x="1024" />

    
    <glyph glyph-name="yanzhengma" unicode="&#58902;" d="M964.487963 538.651477c-4.886424-70.287753-4.001239-141.573257-15.95379-210.638125-20.435997-118.087723-85.131225-211.52331-181.247949-282.803698-66.926098-49.631739-134.379214-98.542028-201.627662-147.743966-30.009294-21.955649-60.985639-23.347384-89.618548-2.312737-76.064478 55.874082-153.239274 110.382012-227.129166 169.024214-94.745455 75.194643-153.822575 174.918623-163.748923 295.150232-9.220247 111.696997-5.526008 224.519662-5.771608 336.851127-0.056283 24.462819 15.401189 43.941998 39.331874 51.668176 127.701954 41.235277 255.465308 82.311937 383.842662 121.367511 16.209624 4.932474 37.126588 0.844251 54.170229-4.47709 118.44589-36.983321 236.472213-75.302094 354.559936-113.421316 32.716015-10.560815 48.403738-32.301564 48.547004-66.603748 0.19955-48.582821 0.051167-97.165642 0.051167-145.748463C961.428192 538.86126 962.958077 538.75381 964.487963 538.651477zM123.577914 537.029491c0-37.510338-0.603768-75.036027 0.10745-112.536132 2.563454-135.136481 57.598401-245.743627 162.060421-329.841283 66.163714-53.264578 137.121751-100.542647 205.1377-151.550772 20.40018-15.298856 36.870754-14.966272 57.086734 0.2763 63.804927 48.112087 129.088572 94.259371 192.878149 142.386809 100.864998 76.105411 162.587438 176.397342 170.697367 303.301094 5.863709 91.701034 2.604387 183.990486 3.300255 276.024104 0.1842 24.667486-12.367001 38.405756-35.929286 45.886334-111.763514 35.468785-223.07676 72.360006-334.983541 107.363174-14.459721 4.52314-32.685315 5.050157-47.032469 0.578184-112.766382-35.156668-224.898296-72.344656-337.500944-108.023225-24.92332-7.895028-36.15442-22.912467-35.898586-48.536771C123.920732 620.579663 123.618848 578.802019 123.577914 537.029491zM519.536861 588.7079c70.75337 0.01535 141.511857 0.081867 212.265228-0.040933 13.61547-0.025583 29.789277 1.739669 28.576625-19.187528-0.997751-17.186909-10.985499-24.72377-29.001309-24.467936-51.990526 0.741918-104.052686-1.141018-155.976695 0.844251-26.202488 1.002868-33.95425-7.976895-33.723999-33.263499 0.972168-106.549623 0.639584-213.119712 0.01535-319.674452-0.056283-10.003098-2.911388-22.426383-9.296997-29.113876-4.38499-4.594773-19.310328-4.502673-25.511737-0.414451-5.771608 3.801689-8.616479 15.651906-8.662529 23.976735-0.547484 108.263709-0.3377 216.527417-0.383751 324.791126-0.01535 32.889982-0.158617 33.033248-32.644381 33.084415-49.442422 0.081867-98.889962 0.020467-148.332384 0.025583-5.116674 0-11.911617-2.041553-15.022555 0.465617-8.790446 7.086594-20.61508 14.945805-22.932934 24.513986-3.883556 16.03054 10.269165 18.455844 23.250167 18.450727C374.617299 588.672083 447.074522 588.69255 519.536861 588.7079z"  horiz-adv-x="1024" />

    
    <glyph glyph-name="yonghu" unicode="&#59059;" d="M512 270.222222c-159.288889 0-284.444444 125.155556-284.444444 284.444445s125.155556 284.444444 284.444444 284.444444 284.444444-125.155556 284.444444-284.444444-125.155556-284.444444-284.444444-284.444445z m0 56.888889c125.155556 0 227.555556 102.4 227.555556 227.555556s-102.4 227.555556-227.555556 227.555555-227.555556-102.4-227.555556-227.555555 102.4-227.555556 227.555556-227.555556zM56.888889-128c0 250.311111 204.8 455.111111 455.111111 455.111111s455.111111-204.8 455.111111-455.111111h-56.888889c0 221.866667-176.355556 398.222222-398.222222 398.222222s-398.222222-176.355556-398.222222-398.222222H56.888889z"  horiz-adv-x="1024" />

    
    <glyph glyph-name="mima" unicode="&#58962;" d="M820 496h-28v56c0 154.6-125.4 280-280 280S232 706.6 232 552v-56h-28c-30.9 0-56-25.1-56-56v-448c0-30.9 25.1-56 56-56h616c30.9 0 56 25.1 56 56V440c0 30.9-25.1 56-56 56z m-532 56c0 123.5 100.5 224 224 224s224-100.5 224-224v-56H288v56z m532-560H204V440h616v-448zM512 328c-15.5 0-28-12.5-28-28v-168c0-15.5 12.5-28 28-28s28 12.5 28 28V300c0 15.5-12.5 28-28 28z"  horiz-adv-x="1024" />

    
    <glyph glyph-name="shouji" unicode="&#58973;" d="M736 776v-784H288V776h448m0 56H288c-30.9 0-56-25.1-56-56v-784c0-30.9 25.1-56 56-56h448c30.9 0 56 25.1 56 56V776c0 30.9-25.1 56-56 56zM746.2 664H288v-56h458.2v56zM741.1 160H282.9v-56h458.2v56zM512 76c-15.5 0-28-12.5-28-28s12.5-28 28-28 28 12.5 28 28-12.5 28-28 28z"  horiz-adv-x="1024" />

    
    <glyph glyph-name="iconset0265" unicode="&#59044;" d="M490.666667 661.333333c0-12.8 8.533333-21.333333 21.333333-21.333333 12.8 0 21.333333 8.533333 21.333333 21.333333 0 12.8-8.533333 21.333333-21.333333 21.333333C499.2 682.666667 490.666667 674.133333 490.666667 661.333333zM512 810.666667c42.666667 0 83.2-19.2 110.933333-49.066667l27.733333 32C616.533333 829.866667 567.466667 853.333333 512 853.333333c-57.6 0-110.933333-25.6-145.066667-68.266667l29.866667-29.866667C424.533333 789.333333 465.066667 810.666667 512 810.666667zM565.333333 697.6l27.733333 32C573.866667 753.066667 544 768 512 768c-34.133333 0-66.133333-17.066667-85.333333-42.666667l29.866667-29.866667C469.333333 712.533333 488.533333 725.333333 512 725.333333 533.333333 725.333333 552.533333 714.666667 565.333333 697.6zM234.666667 42.666667c-12.8 0-21.333333-8.533333-21.333333-21.333333 0-12.8 8.533333-21.333333 21.333333-21.333333 12.8 0 21.333333 8.533333 21.333333 21.333333C256 34.133333 247.466667 42.666667 234.666667 42.666667zM981.333333 106.666667c0 2.133333 0 6.4-2.133333 8.533333l0 0-85.333333 298.666667 0 0C891.733333 420.266667 883.2 426.666667 874.666667 426.666667l-42.666667 0L832 682.666667c0 12.8-8.533333 21.333333-21.333333 21.333333-12.8 0-21.333333-8.533333-21.333333-21.333333l0-256L234.666667 426.666667 234.666667 682.666667c0 12.8-8.533333 21.333333-21.333333 21.333333-12.8 0-21.333333-8.533333-21.333333-21.333333l0-256L149.333333 426.666667c-8.533333 0-17.066667-6.4-19.2-12.8l0 0-85.333333-298.666667 0 0C42.666667 113.066667 42.666667 108.8 42.666667 106.666667l0-42.666667 2.133333 0C44.8 57.6 42.666667 49.066667 42.666667 42.666667l0-42.666667c0-46.933333 38.4-85.333333 85.333333-85.333333l768 0c46.933333 0 85.333333 38.4 85.333333 85.333333l0 42.666667c0 6.4-2.133333 14.933333-2.133333 21.333333L981.333333 64 981.333333 106.666667zM164.266667 384l693.333333 0 72.533333-256L896 128 128 128 91.733333 128 164.266667 384zM938.666667 42.666667l0-42.666667c0-23.466667-19.2-42.666667-42.666667-42.666667L128-42.666667c-23.466667 0-42.666667 19.2-42.666667 42.666667l0 42.666667 0 42.666667 42.666667 0 768 0 42.666667 0L938.666667 42.666667zM149.333333 42.666667c-12.8 0-21.333333-8.533333-21.333333-21.333333 0-12.8 8.533333-21.333333 21.333333-21.333333 12.8 0 21.333333 8.533333 21.333333 21.333333C170.666667 34.133333 162.133333 42.666667 149.333333 42.666667zM533.333333 42.666667 320 42.666667c-12.8 0-21.333333-8.533333-21.333333-21.333333 0-12.8 8.533333-21.333333 21.333333-21.333333l213.333333 0c12.8 0 21.333333 8.533333 21.333333 21.333333C554.666667 34.133333 546.133333 42.666667 533.333333 42.666667z"  horiz-adv-x="1024" />

    
    <glyph glyph-name="dongtai" unicode="&#59047;" d="M510.941765 1.434523c-193.447243 0-350.835733 157.410875-350.835733 350.879304 0 193.459435 157.415472 350.828338 350.857718 350.828338 56.169717 0 131.805236-30.308851 159.895191-42.457014l-27.828133 76.436976c-4.001287 11.071893 1.732825 23.454498 12.811314 27.480368l1.841751 0.667547c11.055504 4.047256 23.418123-1.671267 27.446391-12.766744l46.657166-128.150314c4.001287-11.07689-1.733824-23.437509-12.811314-27.461381l-1.863736-0.667547c-0.130911-0.065556-0.282808-0.021585-0.402727-0.065556l-114.253336-65.978666c-10.199085-5.890007-23.391141-2.354803-29.278149 7.841683l-0.986331 1.714238c-5.91399 10.174502-2.40437 23.372154 7.822696 29.259562l80.9729 46.769091c-1.973662 0.340169-3.968309 0.596995-5.768089 1.433428 0 0-83.992853 39.160849-144.27778 39.160849-167.66932 0-304.069641-136.400121-304.069641-304.045057 0-167.701898 136.373139-304.113011 304.047656-304.113011 167.673917 0 304.093025 136.391127 304.093025 304.079034 0 25.109975-5.097544 51.698349-5.097544 51.698349-2.207503 11.570555 4.393022 25.749542 14.652066 31.535619l4.818733 2.676585c10.282029 5.784078 20.73694 1.092859 23.266225-10.433326 0 0 9.190769-41.988332 9.190769-75.449245C861.831862 158.845399 704.422985 1.434523 510.941765 1.434523zM627.495342 165.980561l-116.957503 63.146986-118.312984-60.562738 23.903793 130.828898-94.170353 93.853567 131.805236 17.632045 60.219971 118.56981 57.478829-119.855938 131.237621-20.586442-96.170596-91.771579L627.495342 165.980561zM585.509009 225.164235l-74.523273 40.278691-75.434256-38.605625 15.252059 83.399255-59.996123 59.788863 83.992853 11.245975 38.370984 75.578957 36.627167-76.374418 83.697053-13.1271-61.309232-58.501136L585.509009 225.164235z"  horiz-adv-x="1024" />

    
    <glyph glyph-name="canshu" unicode="&#58965;" d="M278.8 275.6V767.9h-46v-492.3c-54.6-10.7-95.9-59-95.9-116.7s41.3-105.9 95.9-116.7v-42h46v42c54.6 10.7 95.9 59 95.9 116.7 0 57.8-41.3 106-95.9 116.7z m-23-189.6c-40.2 0-72.9 32.7-72.9 72.9s32.7 72.9 72.9 72.9 72.9-32.7 72.9-72.9c0-40.1-32.7-72.9-72.9-72.9zM534.8 501.9v266h-46v-266.3c-54.2-11.1-95-59.1-95-116.5s40.9-105.4 95-116.5v-268.3h46v268c55 10.4 96.8 58.8 96.8 116.8s-41.7 106.4-96.8 116.8z m-22.1-189.7c-40.2 0-72.9 32.7-72.9 72.9s32.7 72.9 72.9 72.9 72.9-32.7 72.9-72.9-32.7-72.9-72.9-72.9zM887.2 608.1c0 57.8-41.5 106.2-96.3 116.7v42.9h-46v-43.1c-54.4-10.9-95.5-59-95.5-116.6 0-57.6 41.1-105.7 95.5-116.6V0h46V491.2c54.7 10.7 96.3 59 96.3 116.9z m-119-73c-40.2 0-72.9 32.7-72.9 72.9s32.7 72.9 72.9 72.9 72.9-32.7 72.9-72.9c0.1-40.2-32.7-72.9-72.9-72.9z"  horiz-adv-x="1024" />

    
    <glyph glyph-name="shujuzhanshi2" unicode="&#58961;" d="M360.32 163.84 360.32 311.36 360.32 415.616c0 31.04-25.216 56.192-56.256 56.192L232.64 471.808c-30.976 0-56.192-25.152-56.192-56.192l0-104.256 0-147.584 0-99.584L360.32 64.192 360.32 163.84zM603.904 513.984 603.904 538.624l0 227.2c0 31.04-25.216 56.256-56.192 56.256L476.224 822.08c-31.04 0-56.192-25.216-56.192-56.256l0-227.2 0-24.576 0-449.728 183.808 0L603.84 513.984zM840.512 338.368 840.512 471.808 840.512 590.144c0 31.04-25.216 56.192-56.192 56.192l-71.488 0c-30.976 0-56.256-25.152-56.256-56.192l0-118.336 0-133.44 0-274.112 183.936 0L840.512 338.368zM64 6.848l896 0 0-60.928-896 0 0 60.928Z"  horiz-adv-x="1024" />

    
    <glyph glyph-name="tuichuquanping" unicode="&#59221;" d="M400.595 550.635l-0.948 245.022c-0.42 18.881-16.018 30.215-34.956 30.637h-25.406c-18.88 0.42-33.874-16.018-33.457-34.881l1.061-133.251-168.117 165.421c-18.274 18.311-47.844 18.311-66.119 0-18.218-18.314-18.218-47.907 0-66.236l166.575-164.885-127.697-0.512c-18.88 0.477-36.394-12.606-39.26-34.899v-24.080c0.477-18.917 16.077-34.558 34.957-34.972l243.826 1.438c0.362-0.035 0.608-0.171 0.928-0.171l17.1-0.378c9.441-0.226 17.9 3.467 23.923 9.593 6.124 6.083 8.382 14.58 8.131 24.078l-1.821 17.138c0.001 0.335 1.27 0.562 1.27 0.945zM766.211 194.549l127.524 0.512c18.88-0.421 36.357 11.183 39.26 33.474v24.077c-0.478 18.922-16.134 34.558-34.957 35.037l-240.702-1.458c-0.378 0-0.605 0.151-0.967 0.151l-17.062 0.42c-9.441 0.226-17.95-3.469-23.98-9.611-6.159-6.030-8.361-14.559-8.173-24.057l1.881-17.1c0.033-0.42-1.234-0.661-1.234-0.986l0.986-241.248c0.477-18.863 16.078-30.162 34.957-30.576l24.017-0.037c18.827-0.433 33.874 16.055 33.403 34.941l-1.062 130.388 168.117-166.502c18.276-18.314 47.809-18.314 66.085 0 18.255 18.31 18.255 47.906 0 66.218l-168.095 166.366zM392.992 277.145c-6.028 6.14-14.541 9.834-23.923 9.61l-17.104-0.42c-0.346 0-0.566-0.151-0.948-0.151l-243.81 1.458c-18.881-0.478-34.503-16.112-34.956-35.034v-24.078c2.843-22.292 20.357-33.892 39.206-33.474l129.158-0.42-167.983-166.37c-18.234-18.255-18.234-47.906 0-66.218 18.256-18.314 47.845-18.314 66.102 0l168.137 165.418-1.079-131.185c-0.42-18.922 14.579-35.413 33.424-34.938h25.406c18.937 0.477 34.54 11.713 34.956 30.637l0.987 243.050c0 0.346-1.267 0.571-1.267 0.949l1.821 17.104c0.206 9.495-1.993 18.025-8.116 24.053zM615.434 508.441c6.030-6.123 14.541-9.819 23.965-9.553l17.060 0.378c0.378 0 0.608 0.132 0.986 0.19l244.19-1.457c18.88 0.434 34.482 16.078 34.956 34.994l0.058 24.078c-2.898 22.331-20.439 35.355-39.26 34.939l-129.573 0.511 166.483 164.893c18.31 18.235 18.31 47.83 0.054 66.143-18.276 18.311-47.809 18.311-66.084 0l-168.117-166.447 1.079 134.276c0.454 18.863-14.598 35.355-33.424 34.939h-24.017c-18.881-0.477-34.484-11.773-34.957-30.637l-0.967-245.075c0-0.378 1.251-0.608 1.251-0.948l-1.859-17.138c-0.192-9.499 2.007-17.991 8.173-24.078z"  horiz-adv-x="1024" />

    
    <glyph glyph-name="rizhi" unicode="&#58908;" d="M346.396444 585.159111c18.375111 0 33.223111 14.848 33.223111 33.223111L379.619556 751.388444c0 18.375111-14.904889 33.223111-33.223111 33.223111-18.375111 0-33.223111-14.848-33.223111-33.223111l0-132.949333C313.173333 600.007111 328.021333 585.159111 346.396444 585.159111zM512.568889 585.159111c18.375111 0 33.223111 14.848 33.223111 33.223111L545.792 751.388444c0 18.375111-14.848 33.223111-33.223111 33.223111-18.375111 0-33.223111-14.904889-33.223111-33.223111l0-132.949333C479.345778 600.007111 494.250667 585.159111 512.568889 585.159111zM412.899556 720.896l33.223111 0 0-66.446222-33.223111 0 0 66.446222ZM579.128889 720.896l33.223111 0 0-66.446222-33.223111 0 0 66.446222ZM911.36 84.878222l0 539.875556c0.113778 55.125333-44.657778 99.726222-99.669333 99.726222L745.244444 724.48l0-66.446222 66.446222 0c18.318222 0 33.336889-14.904889 33.336889-33.223111l0-539.932444c0-18.318222-15.018667-33.28-33.336889-33.28L213.447111 51.598222c-18.261333 0-33.223111 14.961778-33.223111 33.28L179.712 84.878222l0.512 539.875556c0 18.318222 14.904889 33.223111 33.223111 33.223111L279.893333 657.976889 279.893333 724.48 213.447111 724.48C158.435556 724.48 113.777778 679.879111 113.777778 624.753778l0-539.875556c0-55.239111 44.657778-99.726222 99.669333-99.726222l598.243556 0c53.418667 0 96.654222 41.927111 99.271111 94.776889 0.056889 0.284444 0.398222 0.625778 0.398222 0.910222l0 2.958222c0 0.398222 0.113778 0.739556 0.113778 1.137778L911.36 84.935111zM678.798222 585.159111c18.318222 0 33.223111 14.848 33.223111 33.223111L712.021333 751.388444c0 18.375111-14.904889 33.223111-33.223111 33.223111s-33.223111-14.848-33.223111-33.223111l0-132.949333C645.575111 600.007111 660.309333 585.159111 678.798222 585.159111zM312.604444 451.697778l398.848 0c18.204444 0 33.223111 14.904889 33.223111 33.223111 0 18.375111-15.018667 33.223111-33.223111 33.223111L312.604444 518.144c-18.375111 0-33.223111-14.848-33.223111-33.223111C279.381333 466.602667 294.229333 451.697778 312.604444 451.697778zM711.452444 354.133333 312.604444 354.133333c-18.375111 0-33.223111-14.904889-33.223111-33.223111s14.848-33.223111 33.223111-33.223111l398.848 0c18.204444 0 33.223111 14.904889 33.223111 33.223111S729.656889 354.133333 711.452444 354.133333zM711.452444 183.694222 312.604444 183.694222c-18.375111 0-33.223111-14.904889-33.223111-33.109333 0-18.375111 14.848-33.336889 33.223111-33.336889l398.848 0c18.204444 0 33.223111 14.961778 33.223111 33.336889C744.675556 168.846222 729.656889 183.694222 711.452444 183.694222z"  horiz-adv-x="1024" />

    
    <glyph glyph-name="cuowutishitubiao" unicode="&#59040;" d="M266.749453 244.904119c9.842627-21.106627 28.305194-38.020458 50.176-45.973015 21.870806-7.962746 46.89003-6.867423 67.986468 2.970109 21.096438 9.842627 38.010269 28.3001 45.96792 50.170905 7.962746 21.865711 6.872517 46.879841-2.970109 67.986468-9.842627 21.096438-28.3001 38.005174-50.170905 45.973015-21.870806 7.957652-46.884935 6.867423-67.981373-2.975204-21.096438-9.832438-38.015363-28.3001-45.978109-50.165811C255.826786 291.014687 256.917015 266.000557 266.749453 244.904119L266.749453 244.904119zM266.749453 244.904119M613.844697 406.757254c9.842627-21.101532 28.305194-38.015363 50.181095-45.96792 21.870806-7.962746 46.89003-6.867423 67.981373 2.970109 21.096438 9.837532 38.010269 28.295005 45.962826 50.165811 7.97803 21.8759 6.882706 46.884935-2.95992 67.991562-9.837532 21.096438-28.28991 38.010269-50.181095 45.96792-21.865711 7.962746-46.879841 6.867423-67.976279-2.970109-21.091343-9.837532-38.010269-28.295005-45.96792-50.165811C602.927124 452.867821 604.012259 427.848597 613.844697 406.757254L613.844697 406.757254zM613.844697 406.757254M531.899224 10.24c23.322746 42.773652 59.310488 78.639124 106.689592 100.728995s98.013612 26.695323 145.739144 16.98006c19.965453-4.187701 39.513154 8.78806 43.614249 28.763701 4.131662 20.082627-8.757493 39.599761-28.768796 43.76199-62.326448 12.935005-129.671005 6.847045-191.97198-22.196856-62.285692-29.0439-110.235383-76.728677-140.44593-132.809234-9.674507-18.00406-3.01596-40.425075 14.967721-50.196378C499.727284-14.402229 522.199244-7.713114 531.899224 10.24L531.899224 10.24zM531.899224 10.24M313.272677 808.623761C74.400478 697.226826-28.957294 413.283343 82.439642 174.40605c111.386746-238.882388 395.345512-342.235065 634.217711-230.843224 238.882388 111.391841 342.224876 395.345512 230.838129 634.217711C836.098547 816.66802 552.155065 920.015602 313.272677 808.623761zM710.192398-42.58006c-188.701294-87.992677-412.99805-6.352876-500.995821 182.348418S202.843701 552.771502 391.5399 640.764179c188.706388 87.987582 413.008239 6.347781 501.000915-182.348418C980.538587 269.709373 898.893692 45.407522 710.192398-42.58006z"  horiz-adv-x="1030" />

    
    <glyph glyph-name="iconset0216" unicode="&#58995;" d="M768 490.666667c0 12.8-8.533333 21.333333-21.333333 21.333333l-170.666667 0 104.533333 313.6 0 0C682.666667 827.733333 682.666667 829.866667 682.666667 832c0 12.8-8.533333 21.333333-21.333333 21.333333L448 853.333333c-8.533333 0-17.066667-6.4-19.2-14.933333l0 0-170.666667-512 0 0c0-2.133333-2.133333-4.266667-2.133333-6.4 0-12.8 8.533333-21.333333 21.333333-21.333333l189.866667 0L426.666667-61.866667l0 0c0 0 0-2.133333 0-2.133333 0-12.8 8.533333-21.333333 21.333333-21.333333 8.533333 0 14.933333 4.266667 19.2 12.8l0 0 298.666667 554.666667 0 0C768 484.266667 768 486.4 768 490.666667zM482.133333 42.666667 512 317.866667l0 0c0 0 0 2.133333 0 2.133333 0 12.8-8.533333 21.333333-21.333333 21.333333l-183.466667 0 155.733333 469.333333 168.533333 0-104.533333-313.6 0 0c0-2.133333-2.133333-4.266667-2.133333-6.4 0-12.8 8.533333-21.333333 21.333333-21.333333l164.266667 0L482.133333 42.666667z"  horiz-adv-x="1024" />

    
    <glyph glyph-name="debug" unicode="&#58897;" d="M225 427.4l-127.3 127.3c-9.7 9.7-9.7 25.6 0 35.4 9.7 9.7 25.6 9.7 35.4 0l127.3-127.3c9.7-9.7 9.7-25.6 0-35.4-9.8-9.7-25.7-9.7-35.4 0zM294 307.7c0 13.8-11.3 25-25 25h-180c-13.7 0-25-11.2-25-25s11.2-25 25-25h180c13.8 0 25 11.2 25 25zM278.6 164.1c-6.9 11.9-22.2 16-34.2 9.2l-155.9-90c-11.9-6.9-16-22.2-9.2-34.2 6.9-11.9 22.2-16 34.2-9.2l155.9 90c12 7 16.1 22.3 9.2 34.2zM763.7 462.8l127.3 127.3c9.7 9.7 25.6 9.7 35.4 0 9.7-9.7 9.7-25.6 0-35.4l-127.4-127.3c-9.7-9.7-25.6-9.7-35.4 0-9.6 9.7-9.6 25.7 0.1 35.4zM960 307.7c0 13.8-11.3 25-25 25h-180c-13.8 0-25-11.2-25-25s11.3-25 25-25h180c13.8 0 25 11.2 25 25zM944.6 49.1c6.9 11.9 2.8 27.3-9.2 34.2l-155.9 90c-11.9 6.9-27.3 2.8-34.2-9.2-6.9-11.9-2.8-27.3 9.2-34.2l155.9-90c12-6.8 27.3-2.7 34.2 9.2zM445.4 684.7l-113.1 113.2c-7.8 7.8-7.8 20.5 0 28.3 7.8 7.8 20.5 7.8 28.3 0l113.1-113.2c7.8-7.8 7.8-20.5 0-28.3-7.8-7.7-20.5-7.7-28.3 0zM578.6 684.7l113.1 113.2c7.8 7.8 7.8 20.5 0 28.3-7.8 7.8-20.5 7.8-28.3 0l-113.1-113.2c-7.8-7.8-7.8-20.5 0-28.3 7.8-7.7 20.5-7.7 28.3 0zM341 584c0-94.441 76.559-171 171-171 94.441 0 171 76.559 171 171 0 94.441-76.559 171-171 171-94.441 0-171-76.559-171-171zM512-39c-98.7 0-188.6 30.4-253.2 85.5-67.2 57.5-102.8 137.1-102.8 230.3 0 96.8 38.4 196.3 105.4 273.1 33.4 38.2 71.6 68.4 113.6 89.6 44 22.2 90.1 33.5 137 33.5 46.9 0 93-11.3 137-33.5 42-21.2 80.2-51.4 113.6-89.6 67-76.8 105.4-176.3 105.4-273.1 0-93.2-35.6-172.8-102.8-230.3-64.6-55.1-154.5-85.5-253.2-85.5zM512 648c43 0 85.3-10.4 125.7-30.8 39.1-19.8 74.8-47.9 106-83.7 30.5-35 55.7-76.5 72.7-120.2 17.6-45 26.5-90.9 26.5-136.4 0-85.7-32.5-158.7-94.1-211.3-59.9-51.4-144-79.6-236.8-79.6s-176.9 28.2-236.9 79.5c-61.6 52.6-94.1 125.7-94.1 211.3 0 45.5 8.9 91.4 26.5 136.4 17.1 43.7 42.2 85.3 72.7 120.2 31.2 35.8 66.9 64 106 83.7 40.5 20.5 82.8 30.9 125.8 30.9M512 698c-210.4 0-381-210.8-381-421.2s170.6-340.8 381-340.8 381 130.4 381 340.8-170.6 421.2-381 421.2zM512 467c-54.1 0-105.2 12.8-147.7 37-34.1 19.4-60.4 45.4-75.6 74.3 64.8 61.2 143.5 94.7 223.3 94.7s158.5-33.5 223.2-94.7c-15.1-28.9-41.4-54.9-75.6-74.3-42.4-24.2-93.5-37-147.6-37zM512 648c39.7 0 79-8.9 116.7-26.4 26.2-12.2 51.1-28.2 74.3-47.9-13.4-18.2-32.4-34.7-55.6-48-18.6-10.6-39.4-18.9-61.7-24.6-23.5-6-48.3-9.1-73.6-9.1-25.3 0-50 3.1-73.6 9.1-22.4 5.7-43.1 14-61.7 24.6-23.3 13.3-42.3 29.7-55.6 48 23.2 19.6 48.1 35.7 74.3 47.9 37.5 17.5 76.8 26.4 116.5 26.4M512 698c-97.2 0-185.8-44.9-253.1-114 31.1-82 132.6-142 253.1-142s222 60 253.1 142c-67.3 69.1-155.9 114-253.1 114zM654.6 21.4c6.9 31.2 34.7 54.6 67.9 54.6 6.7 0 13.5-1 19.9-2.9-11.9-10.2-25-19.5-38.9-27.9-15.3-9.1-31.6-17.1-48.9-23.8zM369 21.4c-17.2 6.7-33.6 14.7-48.9 23.8-13.9 8.3-27 17.7-38.9 27.9 6.4 1.9 13.1 2.9 19.9 2.9 33.2 0 61.1-23.4 67.9-54.6zM669.3 242c-52.4 0-95 42.6-95 95s42.6 95 95 95 95-42.6 95-95-42.6-95-95-95zM354.3 242c-52.4 0-95 42.6-95 95s42.6 95 95 95 95-42.6 95-95-42.6-95-95-95zM669.3 422c46.9 0 85-38.1 85-85s-38.1-85-85-85-85 38.1-85 85 38.1 85 85 85M354.3 422c46.9 0 85-38.1 85-85s-38.1-85-85-85-85 38.1-85 85 38.2 85 85 85M307 65.7c17.7-1.7 33.1-11.3 42.9-25.1-8.5 4.1-16.7 8.5-24.6 13.2-6.3 3.8-12.4 7.7-18.3 11.9M716.6 65.7c-5.9-4.2-12-8.1-18.3-11.9-7.9-4.7-16.1-9.1-24.6-13.2 9.8 13.8 25.2 23.4 42.9 25.1M669.3 442c-58 0-105-47-105-105s47-105 105-105 105 47 105 105-47 105-105 105zM354.3 442c-58 0-105-47-105-105s47-105 105-105 105 47 105 105-47 105-105 105zM722.5 86c-43.8 0-79.5-35.6-79.5-79.4 23.4 7.9 45.4 17.9 65.6 30.1 19.2 11.5 36.6 24.7 52.1 39.6-11.5 6.2-24.6 9.7-38.2 9.7zM301.1 86c-13.6 0-26.7-3.5-38.2-9.8 15.4-14.8 32.9-28 52.1-39.6 20.3-12.1 42.2-22.2 65.6-30.1 0 43.9-35.7 79.5-79.5 79.5zM487 469h50v-518h-50z"  horiz-adv-x="1024" />

    
    <glyph glyph-name="quanxian" unicode="&#58943;" d="M950.66749 161.591166a31.970084 31.970084 0 0 1-45.213286 0l-60.985194-60.959906a15.085545 15.085545 0 0 0-10.750618-4.425238 15.085545 15.085545 0 0 0-10.750618 4.42885l-85.546166 85.553391 71.724974 71.721363a31.970084 31.970084 0 1 1-45.213285 45.20606l-71.721363-71.721362-177.898167 177.937904a254.991226 254.991226 0 0 1 61.686007 166.667095c0 141.383635-114.615462 255.999097-255.999097 255.999097S64.00158 717.38657 64.00158 575.999323s114.615462-255.999097 255.999097-255.999097a254.821442 254.821442 0 0 1 146.899829 46.318692l202.032872-202.079834c0.216746-0.231196 0.42988-0.466005 0.657464-0.689976s0.455167-0.433493 0.682751-0.650239L777.758101 55.425199a78.592221 78.592221 0 0 1 55.953066-23.159346 78.603059 78.603059 0 0 1 55.963904 23.152121l60.985194 60.970744a31.952022 31.952022 0 0 1 0.007225 45.202448z m-555.929064 237.416712a191.722971 191.722971 0 0 0-182.066922 17.70095 192.80309 192.80309 0 0 0-69.655047 84.556358 191.722971 191.722971 0 0 0 17.700951 182.066922 192.80309 192.80309 0 0 0 84.541908 69.662272 191.722971 191.722971 0 0 0 182.066922-17.70095 192.806703 192.806703 0 0 0 69.655047-84.556358 191.722971 191.722971 0 0 0-17.700951-182.066922 192.806703 192.806703 0 0 0-84.541908-69.662272z"  horiz-adv-x="1024" />

    
    <glyph glyph-name="shuaxin" unicode="&#59066;" d="M512-64c-234.394624 0-425.10336 190.708736-425.10336 425.10336S277.605376 786.20672 512 786.20672c116.878336 0 225.772544-46.432256 306.69312-130.737152 9.644032-10.027008 44.068864-47.517696 52.627456-58.438656 11.113472-14.242816 8.558592-34.807808-5.684224-45.92128-14.306304-11.113472-34.87232-8.49408-45.92128 5.684224-7.791616 10.027008-39.406592 44.196864-48.156672 53.32992C703.028224 681.527296 610.8672 720.805888 512 720.805888c-198.308864 0-359.702528-161.393664-359.702528-359.702528S313.691136 1.400832 512 1.400832 871.702528 162.794496 871.702528 361.10336c0 18.074624 14.625792 32.700416 32.700416 32.700416s32.700416-14.625792 32.700416-32.700416c0-234.394624-190.708736-425.10336-425.10336-425.10336zM838.683648 524.604416H623.194112c-18.074624 0-32.700416 14.625792-32.700416 32.700416s14.625792 32.700416 32.700416 32.700416h209.294336V799.299584c0 18.074624 14.625792 32.700416 32.700416 32.700416s32.700416-14.625792 32.700416-32.700416v-215.489536c-0.001024-32.635904-26.569728-59.205632-59.205632-59.205632z"  horiz-adv-x="1024" />

    
    <glyph glyph-name="quanping" unicode="&#58901;" d="M629.557 504.028c17.329-17.319 47.028-17.319 66.815 0l168.302 165.814v-133.638c0-19.805 14.85-34.646 34.637-34.646h24.744c19.806 0 34.656 12.372 34.656 29.691l-0 245.017h-2.478l2.478 17.318c0 9.904-2.478 17.329-7.435 24.752-4.936 4.948-14.848 9.894-24.744 9.894h-17.327l-244.994 2.478c-19.805 0-34.654-17.329-34.654-34.646v-24.752c2.478-22.274 19.789-34.646 39.593-34.646h128.691l-165.805-165.816c-22.284-17.318-22.284-47.026-2.478-66.823v0 0zM394.441 266.443c-17.31 17.328-47.009 17.328-66.815 0l-168.301-165.806 0 131.168c0 19.788-14.832 34.638-34.637 34.638h-24.761c-19.788 0-34.638-12.372-34.638-29.698v-242.533h2.477l-2.477-17.328c0-9.893 2.477-17.31 7.416-24.744 4.956-4.956 14.868-9.894 24.761-9.894h17.328l244.993-2.477c19.823 0 34.655 17.328 34.655 34.638v24.76c-2.478 22.266-19.788 34.638-39.593 34.638h-128.691l168.284 165.824c17.327 17.328 17.327 47.027-0.001 66.815v0 0zM956.231-8.266v242.549c0 19.788-17.329 29.681-34.639 29.681h-24.759c-19.789 0-34.639-17.309-34.639-34.638v-131.168l-168.301 165.806c-17.308 17.329-47.009 17.329-66.815 0-17.327-17.309-17.327-47.009 0-66.814l168.284-165.806h-128.691c-19.787 0-37.115-12.388-39.593-34.654v-24.745c0-19.805 17.329-34.654 34.639-34.654l257.4 2.478c9.893 0 17.31 2.477 24.744 9.893 4.955 4.956 7.415 14.85 7.415 24.745l4.955 17.327c-2.478 0 0 0 0 0v0 0zM228.636 736.665h128.691c19.805 0 37.115 12.373 39.593 34.646l-0 24.753c0 19.797-17.309 34.646-34.654 34.646l-262.338-2.478c-9.876 0-17.31-2.477-24.744-9.894-4.938-4.956-7.416-14.849-7.416-24.752l2.477-17.318h-2.477v-245.018c0-19.797 14.85-29.691 34.638-29.691h24.744c19.822 0 34.654 14.841 34.654 34.646l-0 133.639 168.284-165.814c17.345-17.319 47.044-17.319 66.832 0 17.329 17.328 17.329 47.026 0 66.823l-168.284 165.814zM228.636 736.665z"  horiz-adv-x="1024" />

    
    <glyph glyph-name="bofangqi-suoping" unicode="&#59033;" d="M791.272727 477.090909h-23.272727v69.818182c0 141.963636-116.363636 256-256 256-141.963636 0-256-114.036364-256-256v-69.818182h-23.272727c-51.2 0-93.090909-41.890909-93.090909-93.090909v-325.818182c0-51.2 41.890909-93.090909 93.090909-93.090909h558.545454c51.2 0 93.090909 41.890909 93.090909 93.090909V384c0 51.2-41.890909 93.090909-93.090909 93.090909z m-488.727272 69.818182c0 116.363636 93.090909 209.454545 209.454545 209.454545s209.454545-93.090909 209.454545-209.454545v-69.818182H302.545455v69.818182z m535.272727-488.727273c0-25.6-20.945455-46.545455-46.545455-46.545454H232.727273c-25.6 0-46.545455 20.945455-46.545455 46.545454V384c0 25.6 20.945455 46.545455 46.545455 46.545455h558.545454c25.6 0 46.545455-20.945455 46.545455-46.545455v-325.818182zM512 302.545455c-25.6 0-46.545455-20.945455-46.545455-46.545455 0-16.290909 9.309091-32.581818 23.272728-39.563636v-53.527273c0-11.636364 9.309091-23.272727 23.272727-23.272727s23.272727 11.636364 23.272727 23.272727v53.527273c13.963636 6.981818 23.272727 23.272727 23.272728 39.563636 0 25.6-20.945455 46.545455-46.545455 46.545455z"  horiz-adv-x="1024" />

    
    <glyph glyph-name="navicon" unicode="&#59470;" d="M192 414l640 0 0-64-640 0 0 64ZM192 606l640 0 0-64-640 0 0 64ZM192 222l640 0 0-64-640 0 0 64Z"  horiz-adv-x="1024" />

    
    <glyph glyph-name="yuan" unicode="&#58967;" d="M512 384m-512 0a100 100 0 1 0 1024 0 100 100 0 1 0-1024 0Z"  horiz-adv-x="1024" />

    
    <glyph glyph-name="biaodan" unicode="&#59157;" d="M288 384l256 0C561.92 384 576 398.08 576 416 576 433.92 561.92 448 544 448l-256 0C270.08 448 256 433.92 256 416 256 398.08 270.08 384 288 384zM768 832 192 832C121.6 832 64 774.4 64 704l0-576c0-70.4 57.6-128 128-128l576 0c70.4 0 128 57.6 128 128L896 704C896 774.4 838.4 832 768 832zM832 128c0-35.2-28.8-64-64-64L192 64c-35.2 0-64 28.8-64 64L128 704c0 35.2 28.8 64 64 64l576 0c35.2 0 64-28.8 64-64L832 128zM672 640l-384 0C270.08 640 256 625.92 256 608 256 590.08 270.08 576 288 576l384 0C689.92 576 704 590.08 704 608 704 625.92 689.92 640 672 640zM608 256l-320 0C270.08 256 256 241.92 256 224l0 0C256 206.08 270.08 192 288 192l320 0c17.92 0 32 14.08 32 32l0 0C640 241.92 625.92 256 608 256z"  horiz-adv-x="1024" />

    
    <glyph glyph-name="liuliangyunpingtaitubiao08" unicode="&#59023;" d="M815.36 441.6l-0.128 0-60.8 13.44-1.408 4.736c-3.968 12.672-9.216 25.344-16 38.784l-2.176 4.224 32.768 54.528c9.984 16 14.208 38.016 1.152 51.072l-30.72 30.848c-7.68 7.68-17.664 9.344-24.704 9.344-9.6 0-19.84-3.2-27.392-8.448l-0.128-0.128L632.32 605.952l-4.352 2.304c-12.544 6.528-25.472 11.904-38.528 16.128L584.96 625.92l-13.568 61.44 0 0.128c-3.2 17.408-18.432 36.224-37.504 36.224l-43.52 0c-18.432 0-30.976-18.56-35.2-36.864l-15.104-60.672-4.48-1.408c-13.952-4.48-27.648-10.24-40.96-17.28l-4.352-2.304-54.528 34.688L335.36 640c-7.552 5.248-17.792 8.448-27.392 8.448-7.04 0-16.896-1.664-24.704-9.344l-30.72-30.72c-13.056-13.056-8.832-35.072 1.152-51.072l34.304-57.088-2.048-4.224c-6.4-12.8-11.136-24.576-14.848-36.224l-1.536-4.736L208.896 441.6l-0.128 0c-17.408-3.2-36.224-18.432-36.224-37.504l0-43.52c0-18.432 18.56-30.976 36.864-35.2l61.184-15.36 1.408-4.48c3.584-11.008 8.064-21.888 13.824-33.536l2.048-4.224-34.304-57.216c-9.984-16-14.208-37.888-1.152-51.072l30.72-30.72c7.68-7.68 17.664-9.344 24.704-9.344 9.6 0 19.84 3.2 27.392 8.448l0.128 0.128 54.528 34.816 4.352-2.304c13.44-7.04 27.264-12.928 41.216-17.28l4.48-1.408 15.104-60.416c4.224-18.432 16.768-36.864 35.2-36.864l43.52 0c19.2 0 34.432 18.816 37.504 36.224l0 0.128 13.696 61.568 4.608 1.536c12.8 4.096 25.6 9.472 38.016 16l4.352 2.304 53.376-34.048 0.128-0.128c7.552-5.248 17.792-8.448 27.392-8.448 7.04 0 17.024 1.664 24.704 9.344l30.72 30.72c13.056 13.056 8.832 35.072-1.152 51.072L734.72 265.216l2.176 4.224c6.016 11.904 11.136 24.064 15.104 36.096l1.408 4.48 61.184 15.36c18.432 4.224 36.864 16.768 36.864 35.2l0 43.52C851.456 423.168 832.768 438.4 815.36 441.6zM512 231.808c-84.096 0-152.192 68.096-152.192 152.192 0 84.096 68.096 152.192 152.192 152.192S664.192 468.096 664.192 384C664.192 299.904 596.096 231.808 512 231.808z"  horiz-adv-x="1024" />

    
    <glyph glyph-name="caidanguanli" unicode="&#59328;" d="M1003.162 34.782l-52.054 35.686c0 6.69 2.27 13.38 2.27 22.306s0 15.6-2.27 22.307l47.53 37.905c4.524 4.471 4.524 8.908 2.254 13.38l-45.261 78.029c-2.253 2.235-6.776 4.471-13.568 2.235l-56.576-22.306c-11.315 8.91-24.9 15.616-38.485 22.306l-9.046 57.976c2.253 6.673-4.522 11.127-9.062 11.127h-90.539c-4.522 0-11.315-4.454-11.315-8.908l-9.045-60.195c-13.585-4.454-24.9-13.38-38.469-22.306l-54.34 22.306c-6.775 2.236-11.298 0-15.838-4.454l-45.26-78.046c-2.27-2.236 0-8.909 4.54-13.38l47.513-35.67c0-6.707-2.253-13.38-2.253-22.306s0-15.616 2.253-22.306l-47.514-37.922c-4.54-4.454-4.54-8.909-2.27-13.363l45.261-78.046c2.27-2.236 6.776-4.454 13.568-2.236l56.576 22.306c11.315-8.908 24.9-15.598 38.485-22.306l9.046-57.958c0-4.472 4.54-8.909 11.315-8.909h90.539c4.522 0 11.315 4.455 11.315 8.909l9.045 57.958c13.585 6.708 27.153 13.38 38.468 22.306l56.576-22.306c4.54-2.218 11.316 0 13.586 4.472l45.26 78.029c2.304 4.471 2.304 11.144-2.235 13.38z m-219.529-20.07c-43.008 0-79.223 35.686-79.223 78.045s36.215 78.03 79.223 78.03 79.224-35.67 79.224-78.03-36.216-78.046-79.224-78.046z m-288.7 79.155c0 150.818 122.249 273.066 273.067 273.066 11.588 0 22.938-0.955 34.133-2.355V810.667c0 28.28-22.92 51.2-51.2 51.2H68.267c-28.28 0-51.2-22.92-51.2-51.2v-853.334c0-28.28 22.92-51.2 51.2-51.2h501.777c-46.439 48.948-75.11 114.927-75.11 187.734zM102.4 759.467h614.4v-51.2H102.4v51.2z m0-221.867h580.267v-51.2H102.4v51.2z m0-204.8h443.733v-51.2H102.4v51.2z m375.467-256H102.4V128h375.467v-51.2z"  horiz-adv-x="1024" />

    
    <glyph glyph-name="yonghuguanli" unicode="&#58896;" d="M955.5828 149.439647a190.913341 190.913341 0 0 1-29.760352 64.510871l33.395722 55.704697-29.557134 29.602293-57.646571-34.637618a186.871533 186.871533 0 0 1-60.694862 24.070209l-16.618831 66.520485h-41.750298l-16.641411-66.520485a184.47806 184.47806 0 0 1-60.220684-24.363748l-58.120749 34.908577-29.534554-29.602293 33.508622-55.953076a189.513385 189.513385 0 0 1-30.008732-64.330232l-59.407806-14.857596v-41.840617l55.162778-13.79634a188.181169 188.181169 0 0 1 27.999118-75.755678l-27.27656-45.566307 29.534554-29.624873 43.511532 26.147564c23.144432-17.386549 50.082293-30.008732 79.752326-35.202117l11.741566-46.898523h41.750298l11.764145 46.943683a187.63925 187.63925 0 0 1 79.616847 35.202116l43.579272-26.192723 29.557134 29.624873-27.52494 45.927586c14.293098 22.444454 24.566968 47.75656 28.270078 75.394399l55.140198 13.79634v41.840617l-59.520706 14.947916z m-181.745887-149.885601a104.545094 104.545094 0 0 0-104.477354 104.612834 104.545094 104.545094 0 0 0 104.477354 104.590253 104.545094 104.545094 0 0 0 104.454774-104.590253 104.567674 104.567674 0 0 0-104.454774-104.612834z m-185.245777 324.992988c-33.621521 24.612128-71.984829 43.014774-113.238369 55.162779 81.039383 39.018126 137.398897 121.141345 137.398898 217.083484 0 133.424829-108.135303 241.582712-241.537553 241.582712S129.6314 730.218126 129.6314 596.793297c0-95.49054 55.930496-177.275061 136.382801-216.518986C117.212437 336.424079 8.851334 202.163793 8.851334 43.201058c0 0 185.290937-50.330673 368.481941-50.330672 47.304961 0 94.316384 3.52247 138.076295 8.715854a280.126659 280.126659 0 0 0-23.415391 112.064212c0.02258 84.381213 37.866549 159.256273 96.596957 210.896582z"  horiz-adv-x="1024" />

    
    <glyph glyph-name="jiaoseguanli" unicode="&#58916;" d="M333.504-126.496v307.104h31.36c28.992 0 52.352 23.36 52.352 52.32v217.856c0 28.96-23.36 52.32-52.352 52.32H198.112c-28.928 0-52.288-23.36-52.288-52.32v-217.856c0-28.928 23.36-52.32 52.288-52.32h31.392v-307.104H161.792v245.504a120.416 120.416 0 0 0-83.072 113.92v217.856a119.488 119.488 0 0 0 119.392 119.392h166.752c65.888 0 120.064-53.504 120.064-119.392v-217.856a120.48 120.48 0 0 0-83.072-113.92v-245.504h-68.352z m547.136 88a64.64 64.64 0 1 0 0 129.28 64.64 64.64 0 0 0 0-129.28z m-252.96 30.784v5.568a30.432 30.432 0 0 0-12.352 15.328 50.976 50.976 0 0 0-3.616 14.176V348.608h-48.672a33.6 33.6 0 0 0-23.328 11.104 32.224 32.224 0 0 0-8.608 24 32.96 32.96 0 0 0 31.936 31.968h48.672V737.568c0 6.784 1.824 13.504 6.112 19.072 6.816 9.856 17.216 16 28.352 16h86.176c9.824 0 17.792-4.32 23.968-10.464 6.176-6.176 9.184-15.392 9.184-24.032a33.664 33.664 0 0 0-32.576-32.608H679.36v-289.28h53.6c18.432 0 33.792-15.36 33.792-33.856 0-18.432-15.328-33.856-33.792-33.856H679.36v-288.64h52.992c18.4 0 33.792-15.424 33.792-33.856 0-18.496-15.36-33.856-33.792-33.856h-104.672v0.096z m252.96 325.536a64.64 64.64 0 1 0 0.064 129.344 64.64 64.64 0 0 0-0.064-129.344zM281.184 617.568A138.624 138.624 0 0 0 142.72 756.032 138.656 138.656 0 0 0 281.184 894.496a138.624 138.624 0 0 0 138.432-138.464c-0.576-76.928-62.08-138.464-138.432-138.464z m0 208.576c-38.752 0-70.784-32-70.784-70.752 0-38.784 32-70.784 70.784-70.784s70.784 32 70.784 70.784c0 38.784-32 70.752-70.784 70.752zM880.64 674.176a64.64 64.64 0 1 0 0 129.216 64.64 64.64 0 1 0 0-129.216z"  horiz-adv-x="1024" />

    
    <glyph glyph-name="cuowu" unicode="&#58918;" d="M64.383234 384C64.383234 631.212171 264.787829 831.616766 512 831.616766 759.212171 831.616766 959.616766 631.212171 959.616766 384 959.616766 136.787829 759.212171-63.616766 512-63.616766 264.787829-63.616766 64.383234 136.787829 64.383234 384ZM474.232379 124.754876C476.408718 98.644488 490.551372 85.587877 516.663176 85.587877 542.773564 85.587877 556.917635 98.644488 559.092556 124.754876 556.917635 150.866681 542.773564 165.009334 516.663176 167.185673 490.551372 165.009334 476.408718 150.866681 474.232379 124.754876ZM480.759977 284.685252C480.759977 258.573446 492.72771 245.518253 516.663176 245.518253 540.597226 245.518253 552.56496 258.573446 552.56496 284.685252L552.56496 646.975382C552.56496 673.085769 540.597226 686.142381 516.663176 686.142381 492.72771 686.142381 480.759977 673.085769 480.759977 646.975382L480.759977 284.685252Z"  horiz-adv-x="1024" />

    
    <glyph glyph-name="wxbgongju" unicode="&#58907;" d="M944.140673 177.587883 621.322359 443.637262c17.037025 37.017078 26.009374 77.727269 26.009374 118.662587 0 156.206668-127.07007 283.313577-283.313577 283.313577-28.04473 0-55.711859-3.996011-82.250282-12.062733l-30.853705-9.348925 175.299515-175.355797c7.463995-7.388271 11.496845-17.265222 11.496845-27.819602s-4.03285-20.430308-11.496845-27.894304l-92.992951-93.030813c-14.815427-14.776542-40.879036-14.852266-55.712883 0L102.189915 675.384393l-9.329483-30.758538c-8.066723-26.612101-12.156878-54.281277-12.156878-82.324984 0-156.131967 127.10691-283.239899 283.314601-283.239899 41.011043 0 81.684394 8.894577 118.662587 25.934672L623.357715 132.655532c0.678452-2.712785 1.811252-5.276167 3.618411-7.537673 1.88493-2.411933 4.297886-4.222161 6.935969-5.429663l113.687272-139.242298c14.175861-16.512069 34.529421-26.086122 55.789631-26.086122 19.525706 0 38.035268 7.841595 52.169173 21.937638l93.02979 93.030813c14.927991 14.927991 22.691815 34.45472 21.86396 54.958706C969.696722 144.792966 960.462406 163.641243 944.140673 177.587883M921.297408 96.619804l-93.030813-93.030813c-14.399965-14.32424-38.373982-13.269211-51.076282 1.658779l-53.714366 65.739237 64.685231 52.16815c8.329712 6.710842 9.572006 18.922978 2.938935 27.215852-6.710842 8.292873-18.847254 9.574053-27.140127 2.939959l-64.910359-52.393277-28.271904 34.6778 58.126862 46.89403c8.292873 6.708795 9.612938 18.845207 2.865257 27.139104-6.634094 8.367575-18.810415 9.650801-27.102265 2.939959l-58.31208-47.043433L492.783845 353.622132l-13.94664-7.388271c-35.132148-18.771529-74.786287-28.572756-114.818025-28.572756-134.947482 0-244.714468 109.692285-244.714468 244.639766 0 12.966313 0.998747 25.7822 2.996241 38.44766l127.917368-127.935788c29.345352-29.40061 80.930217-29.40061 110.295012 0l92.992951 93.030813c14.737656 14.70184 22.806425 34.302247 22.806425 55.184857 0 20.806885-8.068769 40.48404-22.806425 55.110155L325.607334 804.074358c12.664438 1.960655 25.51921 2.940982 38.410821 2.940982 134.947482 0 244.714468-109.691261 244.714468-244.713444 0-39.957037-9.874905-79.687924-28.572756-114.742301l-7.388271-13.947663L919.336754 148.0348c7.728008-6.634094 12.215206-15.60542 12.552897-25.25622C932.30409 113.129826 928.497391 103.854579 921.297408 96.619804"  horiz-adv-x="1024" />

    
    <glyph glyph-name="tuichu" unicode="&#58946;" d="M624.113427 64.45115 133.815705 64.45115 133.815705 704.057433l490.297722 0 0-95.941096 63.960731 0L688.074158 736.037798c0 17.662265-14.3181 31.980365-31.980365 31.980365L101.83534 768.018164c-17.662265 0-31.980365-14.3181-31.980365-31.980365l0-703.567014c0-17.662265 14.3181-31.980365 31.980365-31.980365l554.258453 0c17.662265 0 31.980365 14.3181 31.980365 31.980365L688.074158 160.392246l-63.960731 0L624.113427 64.45115zM955.938881 429.481867 764.05669 621.364059l-45.227064-45.227064 137.287783-137.287783-562.398854 0 0-63.960731 562.398854 0L718.829626 237.601722l45.227064-45.227064 191.882192 191.882192C968.42731 396.743232 968.42731 416.993438 955.938881 429.481867z"  horiz-adv-x="1024" />

    
    <glyph glyph-name="daohanglanmoshi02" unicode="&#58915;" d="M232.727273 814.964364l744.727273 0 0-42.263273-744.727273 0 0 42.263273ZM46.545455 849.454545l93.090909 0 0-92.974545-93.090909 0 0 92.974545ZM232.727273 405.131636l744.727273 0 0-42.263273-744.727273 0 0 42.263273ZM46.545455 430.475636l93.090909 0 0-92.974545-93.090909 0 0 92.974545ZM232.727273-3.118545l744.727273 0 0-42.263273-744.727273 0 0 42.263273ZM46.545455 11.52l93.090909 0 0-92.974545-93.090909 0 0 92.974545Z"  horiz-adv-x="1024" />

    
    <glyph glyph-name="changyonglogo27" unicode="&#59156;" d="M891.668601 318.388676c-89.079828-49.415456-179.385577-94.695732-279.245935-115.476011-22.460548-4.673439-46.904263-4.493338-69.728084-1.378393-21.74935 2.967588-32.301683 22.24156-24.658609 42.821271 7.1744 19.316951 17.053398 38.555108 29.715789 54.710043 27.179013 34.681894 57.772798 66.673515 85.292572 101.106746 16.857946 21.092387 31.943526 43.912116 45.309952 67.387783 9.606799 16.874319 5.309936 36.984333-11.719926 45.466518-28.615735 14.255679-59.383482 24.26259-89.538269 35.254945-3.470031 1.26583-8.801457-2.573615-15.563464-4.801353 8.610098-7.92039 15.146978-13.933337 23.814382-21.903869-89.63753-15.365966-174.893262-37.784558-257.522168-68.403926-0.35918-1.805112-1.055029-3.091408-0.672312-3.695159 12.166087-19.183921 6.457062-33.785477-11.18576-45.791929-6.747681-4.590552-12.913101-10.039657-17.99177-17.181311 54.416354-16.393365 103.003955-7.04751 149.214417 24.184819-2.877537 4.264117-5.463432 8.094352-8.276501 12.264325 17.597797-3.024893 28.052916-12.914124 29.414937-28.315906 0.300852-3.397377-1.863441-7.011694-2.89391-10.525728-2.575662 2.837628-5.431709 5.477758-7.625678 8.584516-1.359974 1.929955-1.717108 4.567016-2.90926 7.993045-55.102992-37.757952-114.307396-47.208185-179.738617-27.604708 0-13.123902-0.6191-24.283056 0.187265-35.33681 0.696872-9.537214-3.246951-13.586436-11.356652-18.62315-18.96391-11.778254-38.429241-24.020066-53.94154-39.765679-18.942421-19.228947-11.874445-42.436508 13.510712-52.253084 28.945239-11.1919 59.289338-11.378142 89.465614-7.664563 35.753295 4.399193 71.311139 10.380418 110.11184 16.144702-45.859467-21.856797-90.528829-37.381375-138.083915-43.702338-33.100886-4.400217-66.181305-6.867408-99.03762 2.615571-47.045479 13.576203-68.01814 49.27731-55.636135 96.794533 11.613502 44.568055 39.240723 80.126922 69.305459 112.974028 100.070136 109.330034 226.524177 164.893514 372.993063 175.798888 34.153868 2.540869 68.75185-1.944282 100.729146-16.801664 45.12064-20.963451 63.72537-65.163115 41.97295-109.874433-14.423501-29.64825-34.344203-56.907081-53.947679-83.665515-19.367093-26.437116-41.60763-50.755987-62.203714-76.314083-6.076392-7.541767-11.565407-15.756869-16.059767-24.329105-8.528234-16.261359-2.679016-27.380604 15.745612-25.542746 38.647205 3.854794 77.957513 6.890944 115.28977 16.736173 54.803163 14.456247 108.119463 34.56012 162.048723 52.318576C881.465215 314.308755 886.534673 316.446441 891.668601 318.388676z"  horiz-adv-x="1024" />

    
    <glyph glyph-name="huanyingye" unicode="&#58892;" d="M820.045865 831.048709 204.210985 831.048709c-61.832254 0-111.936395-50.076512-111.936395-112.076588l0-671.536506c0-61.916165 49.992601-112.105241 111.936395-112.105241l615.83488 0c61.832254 0 111.936395 50.076512 111.936395 112.076588l0 671.565159C932.010913 780.860656 881.990682 831.048709 820.045865 831.048709zM876.027877 75.203028c0-46.073338-37.703717-83.889619-84.197634-83.889619L232.454236-8.68659c-46.605457 0-84.197634 37.564547-84.197634 83.889619L148.256602 691.204707c0 46.045709 37.676088 83.86199 84.197634 83.86199l559.376007 0c46.605457 0 84.197634-37.564547 84.197634-83.86199C876.027877 691.204707 876.027877 75.203028 876.027877 75.203028zM540.133757 411.181059 344.19518 411.181059 344.19518 579.128119 288.213167 579.128119 288.213167 187.251987 344.19518 187.251987 344.19518 355.199047 540.133757 355.199047 540.133757 187.251987 596.11577 187.251987 596.11577 579.128119 540.133757 579.128119ZM680.090323 467.163071l55.982012 0 0-279.912108-55.982012 0 0 279.912108ZM680.090323 579.128119l55.982012 0 0-83.97353-55.982012 0 0 83.97353Z"  horiz-adv-x="1024" />

    
    <glyph glyph-name="iframe" unicode="&#59212;" d="M64 768l0-768 960 0L1024 768 64 768zM512 704l0-128L128 576 128 704 512 704zM128 320 128 512l384 0 0-192L128 320zM128 256l256 0 0-192L128 64 128 256zM960 64 448 64l0 192 512 0L960 64zM960 320 576 320 576 512 576 576 576 704l384 0L960 320z"  horiz-adv-x="1024" />

    
    <glyph glyph-name="msnui-360" unicode="&#59274;" d="M358.516 325.012c1.474 0 2.929 0.073 4.375 0.179h95.375v-109.278c0-32.246 26.373-58.759 58.666-58.759 32.473 0 58.845 26.514 58.845 58.759 0 1.472-0.073 2.926-0.179 4.37v104.908h113.869c1.441-0.106 2.892-0.179 4.359-0.179 32.293 0 58.666 26.514 58.666 58.759 0 32.426-26.373 58.759-58.666 58.759-1.473 0-2.928-0.073-4.374-0.179l-113.855 0v103.834c0.106 1.445 0.179 2.898 0.179 4.37 0 32.246-26.373 58.759-58.845 58.759-32.293 0-58.666-26.514-58.666-58.759v-108.203l-99.571-0.004c-0.060 0-0.119 0.004-0.179 0.004-32.293 0-58.666-26.335-58.666-58.759 0-32.246 26.373-58.58 58.666-58.58zM795.977 41.403c23.379 19.154 45.025 40.994 64.433 65.44 61.33 76.461 98.1 173.34 98.1 278.527 0 245.966-200.935 446.609-447.261 446.609s-447.262-200.642-447.262-446.608c0-97.349 31.498-187.581 84.805-261.103 13.389-21.058 33.146-43.974 60.656-67.994 79.652-72.909 185.676-117.512 301.799-117.512 106.046 0 203.658 37.212 280.468 99.192 0.934 0.746 1.867 1.496 2.796 2.25 0.488 0.4 0.978 0.796 1.464 1.198zM181.215 638.411c70.829 41.181 151.668 63.064 202.059 73.072 93.65 18.631 206.138-12.899 247.402-32.426 70.148-32.963 91.677-66.284 127.917-100.5l20.632-19.527c48.394-45.723 97.776-39.848 112.257-4.38 23.242-51.758 36.196-109.056 36.196-169.28 0-97.362-33.831-187.085-90.331-258.080-68.652-38.007-145.151-58.568-193.672-68.178-93.471-18.631-205.959 12.899-247.402 32.426-69.969 32.963-91.677 66.284-127.737 100.321l-20.632 19.706c-48.891 46.097-100.862 40.574-117.053 4.903-23.137 51.66-36.031 108.823-36.031 168.903-0 95.075 32.268 182.859 86.395 253.040z"  horiz-adv-x="1024" />

    
    <glyph glyph-name="souhu" unicode="&#58925;" d="M193.692 606.398c4.83 0.467 5.482-1.735 7.994-3.337 18.037-11.203-16.035-27.682-23.902-27.879-2.978-0.141-6.644 1.62-7.851 3.305-4.808 6.238 0.763 8.641 4.258 12.114l2.082 2.655c1.185 3.581 13.103 12.854 17.418 13.143v0zM223.886 627.752c2.383 0.92 10.878 3.157 14.333-3.263 3.4-6.419-1.605-46.582-1.605-72.35 0-4.9-1.398-13.382 0-18.083 0.271-0.879 8.557-9.55 9.504-9.89 6.786-1.702 31.593 1.585 33.42 4.989 2.232 4.317 0.794 9.058 1.54 14.787-14.225 0-29.243 5.548-30.155 6.583-0.892 0.962-3.362 2.894 0 6.583 3.465 3.658 19.873 5.663 31.808 4.932-0.794 9.773 2.359 20.919-3.194 21.38-5.498 0.353-23.329 3.033-25.451 4.957-2.090 1.824-4.085 5.393-3.164 9.822 0.915 4.365 2.994 4.365 4.776 4.875 8.495 2.813 19.228-1.208 23.839-3.263 19.617-8.853 24.124-16.381 22.241-42.685-2.146-28.516 4.274-36.363-15.923-47.691-6.263-3.509-7.151-5.755-19.014-4.875-5.007 0.279-18.196 4.234-25.507 1.553-0.77-0.204-2.281-4.924-5.221-5.59-1.796-2.013-0.365-1.882-1.089-2.588-0.709-0.756 0-3.337 0-3.337 5.466-1.578 9.003-1.076 14.318-3.214l19.046-11.573c5.331-7.242 6.134-26.426 1.629-34.458-2.582-4.488-9.988-7.003-12.769-11.573-0.945-1.603-0.572-4.826-1.54-6.486 2.025-1.543 1.313-3.519 3.164-5.039 2.813-1.997 5.705-0.222 9.52-1.578 4.521-1.621 10.583-5.737 15.914-8.285 0-0.494 0-1.112 0-1.611 4.043-0.947 8.526 1.019 12.755 0 1.263-0.231 6.142-4.373 7.905-4.965 9.789-2.524 15.614 0.822 19.087-8.107 2.654-7.217 1.144-18.61-4.729-21.478-17.537-7.973-39.419 10.76-49.306 16.472-4.314 2.507-8.533 2.211-12.769 5.006-6.905 4.373-14.167 14.678-30.13 9.813-2.805-0.89-8.026-8.195-11.212-9.813-3.918-2.032-6.668-1.357-11.093-3.337-10.369-4.554-25.897-20.165-46.055-13.111-0.612 0.141-2.845 4.431-3.156 4.793-5.339 7.076-3.577 7.761-1.644 16.462 6.555 0 14.875 1.144 19.102 1.769 15.479 2.194 31.115 6.699 36.503 13.078 5.356 6.419-3.362 15.518-11.051 26.271-1.741 2.377-1.24 4.875-3.249 6.617-5.213 4.636-12.062 5.688-17.498 9.798-1.089 0.953-0.945 1.479-2.066 1.628-6.66 0.894-4.172 12.741 8.487 11.616 7.431-0.716 44.1-33.158 46.095-34.549 1.844-1.398 5.221-1.112 7.921 0 1.788 0.773 2.98 3.114 4.18 4.29 2.78 2.819 6.944 6.6 8.526 10.472 1.694 4.257 0 13.177 0 13.177-1.796 1.249-3.926 7.25-7.968 8.213-8.333 2.228-25.211-2.894-28.567 0-3.416 2.903-0.763 10.957 1.518 14.714l11.212 4.996c-0.716 0.502-0.317 1.596-2.066 4.332-1.636 2.762-1.041 2.672-2.735 3.946-11.077 8.145-29.486-2.137-42.924 3.231-15.407 6.313-12.755 12.008-12.755 32.936 0 0-0.548 9.075 0 9.847 0.595 0.833-1.374 16.44 3.29 21.419 4.601 4.884 11.052 2.967 15.885-13.192 9.424 0 22.4-0.92 25.394-1.692 2.986-0.764 4.258-5.286 1.596-8.195-2.742-2.91-7.921-4.521-15.914-6.544-1.907-0.502-6.992-1.448-11.068-1.645-0.866-11.377 0-16.718 3.139-18.159 3.091-1.24 29.004 1.249 31.839 11.564 2.511 9.749 0.612 26.040 0 36.109-0.859 10.899-5.522 48.603-1.686 55.943 0.671 1.266 2.443 2.243 4.78 3.237v0zM118.799 610.812c4.355 1.39 5.45 2.259 11.291-2.762 5.968-4.989 4.076-31.637 3.186-42.734 1.717-0.855 3.591-4.552 4.784-4.996 3.83-1.273 8.796 1.193 12.786 0 2.573-0.683 6.628-3.952 7.921-6.486 1.207-2.672 1.779-5.903 0-8.279-1.852-2.359-5.268-4.323-7.921-4.884-12.786-2.819-18.697 0.067-22.303-11.514-1.962-6.247-2.735-16.193 0-21.428 0.659-1.232 1.32-2.292 4.736-3.181 3.591-0.97 10.035 2.005 11.157 1.553 0.883-0.296 3.147-3.231 3.147-3.231s0.524-7.941-1.549-11.491c-3.099-5.145-12.474-3.896-14.31-11.573-1.16-4.826 1.455-12.559 1.556-14.78 0.279-5.408-0.373-16.349-0.262-17.515 0.683-6.863 0.262-2.169 0.262-2.169 2.918-12.337-0.659-46.877-4.736-52.657 0 0-3.909-5.202-4.569-5.755l-3.407-2.423c-6.174-1.925-15.558-5.73-25.37-3.255-8.232 1.966-20.977 17.707-15.909 32.806 0.073 0.706 3.201 3.287 3.201 3.287s4.473 0.494 6.389 0c4.314-1.218 10.226-13.703 12.625-14.846 2.455-0.986 4.593-0.6 6.397 0 11.498 4.119 6.729 46.613 7.939 62.527-1.686 0.855-3.622 4.578-4.776 4.924-19.142 6.641-25.921-23.698-46.055-4.924-3.678 3.403-0.365 7.882 1.565 11.557 3.743 6.889 9.78 4.184 18.57 6.641 1.24 0.321 6.134 4.596 6.851 4.875 4.449 1.931 8.455-0.502 12.776 1.505 2.543 1.519 10.472 13.507 11.068 16.514 2.313 12.487-2.265 35.881-11.068 37.845-6.43 1.373-9.424-2.64-12.776-3.263-5.76-1.218-16.076-3.838-22.193-1.645-0.786 0.198-3.233 3.323-3.233 3.323s-0.548 9.635 1.605 13.060l3.139 2.648c1.175 0.494 4.489 1.876 6.397 2.251 8.144 1.906 17.117-1.43 25.434 0 2.796 0.665 7.103 4.068 9.511 4.996-1.199 8.77-3.869 37.746 1.588 42.734 1.373 1.266 0.215 1.47 4.559 2.745v0zM718.135 476.568c3.734 3.395 13.43 16.776 15.885 21.347 0.437 0.962 3.178 4.947 3.178 4.947 1.313 6.451-2.438 13.605-3.178 18.010-0.215 0.156 2.281 3.287 0 6.602-2.192 3.337-9.463-1.717-14.24-4.941-1.86-1.076-1.438-3.658-3.139-4.89-12.015-8.614-14.326-9.494-27.095-3.27-1.754 2.678-3.465 4.343 0 9.789 3.528 5.565 20.881 14.87 31.807 19.778-0.247 4.043 1.192 10.949 0 14.82-0.247 0.625-4.251 2.747-4.712 3.27-19.832 23.828-11.227 29.574-11.227 29.574s11.847 6.756 19.143 3.305c7.16-3.501 14.739-42.135 23.782-18.107 0.778 1.972 3.663 8.696 3.193 11.557-0.317 2.055-5.959 5.169-6.333 6.552-0.517 1.373 0.127 6.708 0.127 6.708l1.422 3.073c2.090 1.174 6.317 3.353 6.317 3.353s6.452 0.33 9.638-1.652c2.043-1.282 9.209-17.763 9.511-21.414 0.373-4.989-1.398-14.030-3.139-18.043-1.026-1.939-5.491-3.838-6.372-6.625-1.627-4.134 0.080-6.215-1.627-9.789-1.134-2.062-5.85-3.855-6.349-6.583-3.108-14.961 9.441-34.629 11.124-47.691 5.673-46.161-2.059-100.494-28.645-118.388-0.271-0.222-4.036-0.683-4.514-1.010l-9.805 2.712c-1.525 2.563-4.562 4.389-6.238 6.461-2.216 2.934-2.693 6.822-4.854 9.89-1.366 2.005-7.017 4.545-7.921 6.577-7.707 17.623 8.526 16.883 17.489 11.549 1.883-1.144 5.436-6.363 7.97-6.544 3.369-0.353 4.562 2.302 6.372 3.255 13.493 7.462 5.283 14.541 6.308 27.963 0.166 2.588 4.395 9.346 4.744 11.499 1.844 11.992-0.794 22.891-3.083 31.267-0.294-0.401-4.37-1.144-4.83-1.692-2.138-2.104-1.747-7.020-3.147-9.855-2.527-4.297-7.597-8.047-11.132-11.557-5.054-4.521-10.193-13.29-17.466-14.77-2.693-0.502-9.752 1.727-9.528 1.727-0.215 0.141-5.317-1.939-8.017 6.577-2.749 8.401 10.241 10.31 22.241 19.692l6.339 4.963zM891.346 604.697c13.69 2.337 20.008-6.789 15.931-18.010-6.079-16.776-35.843-14.573-55.653-18.141-2.686-0.452-9.957-4.506-12.625-4.932-8.479-0.97-14.391 1.621-22.337-1.578-3.909-1.529-6.483-4.144-9.472-6.625-2.965-2.423-5.936-3.707-7.994-6.534-1.97-2.793-1.549-6.526-1.549-6.526s1.717-15.642 3.164-21.479c1.089-4.488 7.072-12.217 7.954-18.010 4.099-27.898-10.553-111.64-20.621-121.628-8.954-8.737-14.581-8.294-19.054-5.029-4.578 3.362-2.98 3.073-4.838 6.592-2.407 4.77-1.636 10.062-1.535 9.879 1.446 3.231 0 5.328 1.535 8.163 2.257 4.282 8.884 7.62 11.187 11.525 0.66 1.307-0.333 3.755 0 4.965 0.937 4.57 6.652 11.317 7.875 16.423 6.040 23.879 9.765 44.017 7.946 70.788-1.462 21.217-19.228 37.014-12.633 59.076 0.564 2.377 4.363 10.653 6.317 13.184 8.63 11.697 40.627 1.684 58.792 6.609 1.304 0.395 4.832 4.438 6.365 4.957 5.968 1.966 9.711-0.056 15.853 1.659 7.406 2.055 13.937 7.628 20.698 11.433 1.596 0.979 2.271 2.885 4.693 3.24v0zM894.575 555.412c0 0 5.197 0 7.968-1.578 9.877-5.845 0.738-17.65-1.636-24.674-1.754-5.268-5.015-13.357-6.34-18.148-0.803-2.827 0.659-5.302 0-8.145-0.341-1.585-1.899-6.082-4.769-6.609-2.819-0.502-5.309 1.553-6.349 3.312-5.482 9.082-4.593 38.485 0 47.649 1.789 3.623 11.125 8.194 11.125 8.194v0zM846.509 545.858c0 0 5.323-1.174 6.794-3.509 1.754-3.125 0.827-6.279 1.613-9.914 2.82-14.417 1.907-35.279-1.613-49.327-1.47-5.335-7.088-12.881-7.946-18.1-0.397-1.776 0.556-4.793 0-6.641-2.059-5.845-8.479-16.029-9.614-22.916-2.686-15.913 3.783-29.795 20.642-24.709 2.519 0.798 4.33 5.18 6.412 6.583-1.916 14.378-12.199 32.318 6.285 23.025 13.732-6.832 16.416-22.555 19.159-41.075-0.953-2.062-2.431-4.479-6.42-4.941-3.949-0.552-4.745 0.542-6.3 1.571-1.287 0.832-1.231 1.102-3.178 4.924-2.033 3.946-4.251 2.672-4.784 0-0.977-0.576-1.622-4.924-1.622-4.924s-12.705-13.070-38.149-3.24c-9.067 6.041-12.975 31.079-7.912 46.047 1.326 3.838 6.324 9.074 7.912 13.192 3.194 8.606 3.194 16.005 6.413 24.669 1.001 2.894 5.68 7.849 6.333 11.508 2.757 16.463-6.604 24.109-7.954 36.083-1.042 9.386 0.065 14.589 4.792 18.188 2.431 1.876 2.043 1.807 6.349 3.206l2.79 0.3zM888.242 491.362c0.279-0.508 4.235-1.193 4.712-1.783 5.793-5.622 5.467-25.762 7.954-36.103 4.672-18.84 16.169-39.546 28.613-50.996 2.025-1.776 3.591-5.476 6.372-6.577 8.241-3.067 15.901-1.201 19.102-9.89 6.754-18.362-19.523-18.139-30.178-11.393-4.688 2.886-18.166 16.712-20.755 21.281-4.507 8.259-4.703 17.031-7.875 26.312-1.924 5.548-8.058 12.864-9.536 18.125-2.678 9.255-4.363 42.045-1.613 49.228l3.203 1.797zM877.085 351.537c7.827 0 19.721-3.649 25.459-6.526 24.308-12.51-31.345-13.102-44.521-9.894-22.877 5.749 8.844 16.421 19.062 16.421v0zM498.832 349.926c30.003 4.743 48.337-8.572 74.683-6.6 10.87 0.92 34.288 5.187 36.569 3.279 2.265-1.85 1.605-6.511 1.605-6.511l-3.147-3.24c-10.090-3.748-113.73-1.045-117.671 1.561-7.658 5.252 1.702 10.597 7.962 11.51v0zM818.317 349.926c9.225 0.436 17.434-2.359 19.071-4.914 1.613-2.637 2.017-4.053-1.636-6.592-3.56-2.591-49.256-1.273-74.676-3.303-34.835-2.672-118.258-3.073-120.794 3.303-2.48 6.337 2.496 6.592 6.397 8.188 7.97 3.566 22.765 1.677 33.31 1.677 25.172 0 53.652 0.116 76.409-1.677 4.974-0.321 12.491 1.373 17.376 0l3.178-3.279c15.461-1.975 27.865 6.064 41.365 6.598v0zM85.602 348.289c17.005 2.442 34.606-2.292 47.676-3.27 82.035-6.345 168.447 4.545 247.971-1.684 24.109-1.883 71.514-1.543 71.514-1.543s3.926-1.684 1.565-4.932c-2.298-3.354-26.754-0.615-41.335-1.741-80.009-6.131-166.943 4.84-249.433-1.611-9.686-0.731-26.184-2.491-38.172-1.621-3.379 0.27-8.645 2.251-14.343 1.621-2.709-0.247-9.995-4.297-12.682-4.946-10.736-2.178-21.756-1.43-31.808 0 0 0.64-2.995 2.581-1.565 8.303 1.39 5.508 11.657 10.201 20.611 11.425v0zM931.078 348.289c11.467 3.368 28.104-3.524 30.218-6.501 2.107-3.125-1.511-6.673-1.511-6.673-12.355 1.019-31.912 0.188-34.971 3.303-3.153 3.023 6.263 9.872 6.263 9.872v0zM568.749 179.003c20.748 0.6 21.875-32.534 3.242-34.539-23.098-2.507-23.886 33.94-3.242 34.539v0zM681.145 225.775c-2.176 13.75-9.614 22.070-23.679 22.070-20.828 0-27.525-20.483-27.525-38.74 0-17.679 4.308-39.627 27.343-39.627 11.234 0 20.921 8.696 23.871 24.518h16.202c-1.771-16.381-11.458-39.438-40.635-39.438-28.003 0-44.703 21.866-44.703 51.546 0 31.925 14.906 57.137 47.875 57.137 26.197 0 36.058-19.637 37.466-37.473l-16.212 0.008zM722.003 208.931c0 13.776 4.918 39.324 28.955 39.324 24.012 0 28.898-25.549 28.898-39.324 0-13.826-4.887-39.465-28.898-39.465-24.037 0-28.955 25.638-28.955 39.465v0zM704.768 208.931c0-26.584 14.365-54.373 46.19-54.373 31.768 0 46.206 27.79 46.206 54.373 0 26.558-14.431 54.308-46.206 54.308-31.823 0-46.19-27.758-46.19-54.308v0zM812.62 260.486h15.885v-14.674h0.349c3.622 5.5 12.22 17.425 30.203 17.425 17.95 0 23.663-11.081 26.58-16.66 8.333 9.651 15.083 16.66 30.616 16.66 10.607 0 30.75-5.597 30.75-34.53v-71.298h-16.733v66.5c0 14.261-4.156 23.928-18.45 23.928-14.192 0-23.56-13.857-23.56-27.661v-62.766h-16.772v71.298c0 8.599-3.201 19.128-15.655 19.128-9.607 0-26.359-6.337-26.359-34.31v-56.117h-16.846v103.073l-0.009 0.003zM100.080 281.43c0 0 8.167 1.519 13.65 0 5.506-1.571 6.254-3.125 6.365-5.73 0.308-2.514-0.111-5.663-6.794-8.95-4.085-2.277-3.623-2.163-4.116-2.221-0.548 0-1.907 0.396-3.853-0.371-1.859-0.731-2.845-0.731-6.604-5.112-3.776-4.358-3.598-4.693-3.598-4.693v-10.346c0 0 1.669-7.751 4.371-11.393 2.63-3.814-0.937-9.378-7.597-7.11-6.571 2.433-10.79 3.952-13.882 10.193-3.019 6.355 0.477 15.518 1.986 18.808 0 0 2.471 0.862 3.982 4.545 0 0 2.192 2.499 0.572 6.897-1.615 4.086 9.787 12.928 15.517 15.485v0zM123.895 278.636c0 0-1.089-4.102 2.464-8.819 3.512-4.774 4.586-6.938 7.438-9.707 2.995-2.745 2.75-3.241 7.912-2.942 5.283 0.207 5.475 3.855 5.283 7.307-0.279 3.428 1.167 5.76-3.631 10.899-4.719 5.246-11.822 6.913-15.518 6.756-3.798-0.322-3.948-3.496-3.948-3.496v0zM108.909 229.523c-1.836 0.173-3.989-0.067-6.619-0.822 0 0-1.859-2.596 0.778-5.286 2.614-2.631 4.107-4.908 7.827-6.641 3.638-1.807 3.457-1.997 6.372-2.499 2.973-0.568 5.283 0 8.136-1.456 2.828-1.513 7.78-4.996 8.771-8.254 1.074-3.197 0.271-7.264-0.111-10.29-0.51-3.083-0.51-3.716-0.51-3.716s0.51-2.475-5.641-5.352c-6.053-3.033-3.941-2.581-8.516-4.884-4.514-2.333-3.67-1.488-3.67-1.488s0.683-0.855-3.886 0.158c-4.553 1.053-7.333 0.494-7.802 1.053-0.357 0.38-2.973 3.008-6.968 1.16 0 0-4.522-2.163-4.999 2.244-0.325 4.309 0.723 15.14-11.132 13.99 0 0-4.967-1.925-1.741-11.053 0 0 3.027-6.493 5.61-8.614 2.536-2.119 3.545-3.017 6.532-8.558 3.011-5.598 6.794-3.847 12.697-3.922 6.023-0.098 12.721 0.101 12.721 0.101s0.746 1.947 9.144 1.208c0 0.041 5.627 2.251 9.099 7.126 0 0 8.868 1.915 10.273 9.716 0 0 1.343 1.76 1.827 8.467 0 0-0.715 3.231-2.201 7.644 0 0-0.389 2.448 0.365 5.852 0.763 3.509-0.937 8.236-3.861 12.247-2.86 3.997-8.232 8.457-12.11 9.61-3.743 1.035-3.114 0.938-3.114 0.938s-8.884-0.502-11.307 0.101c-1.416 0.403-3.313 1.079-5.967 1.22v0zM206.453 237.019c-3.448-0.855-10.813-7.143-12.143-15.274-1.374-8.164 0.088-22.039 1.763-27.749 1.701-5.852 6.937-15.775 11.513-19.884 4.647-4.018 11.433-6.125 11.433-6.125s2.305-0.091 3.734-2.27c1.272-2.178 3.172-4.62 4.48-5.983 1.175-1.289 1.398-1.289 5.857-0.89 4.464 0.543 6.588-1.735 12.755 3.495 6.174 5.169 4.172 5.481 7.446 6.985 0 0 0 0.773 1.811 1.118 1.932 0.477 8.232 1.471 11.020 10.209 2.845 8.614 4.028 13.029 3.346 20.368v5.558c0 0-1.28 5.663-4.456 8.985l-0.421 2.359c0 0-0.716 2.621 1.312 5.054 2.043 2.4 4.355 6.304 4.355 6.304s1.328 1.99 0.73 9.231c-0.604 7.242-2.025 11.122-4.569 14.367-2.552 3.149-2.107 7.249-2.398 9.831-0.246 2.646-8.192 13.003-12.173 16.563l-1.836 2.178c0 0-5.603-1.144-9.225 1.282-3.727 2.433-5.887 1.798-8.954 1.677 0 0-3.56-2.259-5.283-4.365-1.827-2.038-1.827-2.351-1.827-2.351s-5.054-0.543-6.761-1.218c-1.795-0.625-9.805-9.527-11.433-13.908 0 0-1.026-8.327 0.294-11.129 0 0 0.7-4.84 4.235-4.332 3.545 0.558 1.796 0.163 1.796 0.163s6.874 12.748 11.713 16.291c4.76 3.617 8.677 6.181 17.846 1.504 0 0 3.72-2.499 6.548-7.496 2.901-4.9 4.609-4.004 5.943-6.781 1.422-2.845 2.637-12.141 3.768-17.064 1.065-4.89 1.065-5.328 1.065-5.328s2.693-6.627 2.464-10.282c-0.216-3.921-2.298-9.847-3.536-11.697-1.272-1.807-0.922-7.087-1.13-9.707-0.279-2.688-1.192-6.106-3.797-8.696-2.552-2.769-4.251-6.279-9.153-9.986-4.917-3.748-4.291-3.559-4.291-3.559s-6.357-4.053-12.020-0.558c-5.53 3.322-11.473 8.558-15.161 16.316-3.695 7.933-4.639 19.308-3.783 25.472 0.968 6.067 3.059 14.197 1.556 16.949-1.468 2.72-3.575 4.619-4.431 4.373v0zM326.001 286.813c0 0-7.065-1.553-7.183-4.685-0.111-3.255 0-9.099 1.048-13.060 1.009-4.028 2.78-8.696 4.043-10.126 1.24-1.398 1.867-2.073 1.867-2.073l0.286-13.851c0 0-4.928-8.754-5.182-13.167-0.286-4.488-0.929-23.286-0.803-27.102 0.088-3.912 0.166-11.337-1.503-16.095-1.612-4.946-2.265-8.655-0.516-16.785 1.811-8.203 1.811-9.378 3.083-10.85 1.374-1.529 5.864-4.309 8.693-0.212 2.78 4.037 2.845 5.59 3.339 10.857 0.365 5.343 1.653 22.729 1.207 24.453-0.398 1.702-0.929 5.976-0.929 5.976l0.644 14.984 4.020 4.9c0 0 4.41 1.776 0.659 9-3.687 7.192-5.61 11.277-5.61 11.277s-1.114 3.764-0.166 8.614c0.794 4.809 0.923 8.308 2.090 11.361 1.105 3.172 1.47 12.938 0.993 17.771-0.596 4.827-4.092 10.892-10.083 8.812v0zM374.693 287.365c0 0-5.045-4.184-5.133-9.914-0.279-5.703 1.28-7.217 1.446-8.877 0.231-1.519-2.431-6.627-1.358-11.747 1.192-5.196 4.586-8.573 4.586-8.573l0.461-1.939c0 0-0.461-3.831-2.693-6.493-2.107-2.646-2.805-4.332-5.483-5.352-2.654-0.97-13.009-1.118-17.331-2.055-4.41-0.945-5.777-7.045-0.653-8.498 5.182-1.497 16.741-1.315 16.741-1.315s4.141-1.808 4.704-6.131c0.469-4.231 0.469-12.141 0.365-19.349-0.111-7.404-0.923-31.531-0.923-31.531s-0.54-6.567 5.864-7.973c6.468-1.208 10.926 0.608 11.141 8.096 0 0-0.216 15.847-1.313 26.673-1.065 10.876-1.358 12.189-1.358 12.189l2.67 29.977-7.669 12.741c0 0-0.961 1.201 1.669 4.119 2.552 2.927 4.593 3.241 5.999 13.177 1.477 10.028 1.605 13.241 1.605 13.241s0.58 10.603-13.342 9.534v0zM457.815 284.125c0 0-2.383 4.309-7.033-0.116-4.562-4.53-7.938-8.762-7.938-8.762s-5.275-6.025 1.994-13.043c7.271-7.102 1.644-1.833 1.644-1.833s-1.121-15.126-1.121-18.726c0-3.592 1.438-5.221 1.438-8.614 0-3.288-1.272-8.689-2.043-14.829-0.724-6.125-2.647-19.208-2.034-24.102 0.738-4.856 2.398-9.854 2.273-14.605-0.166-4.734 1.382-7.741 4.784-10.66 3.465-2.804 15.233-9.822 19.196-12.125 3.933-2.277 9.258-4.267 18.712 1.717 9.289 5.953 16.208 12.108 18.037 18.502 1.907 6.385 2.002 7.882 2.002 7.882s0.454 22.317-0.437 28.005c-0.891 5.678-8.010 11.081-12.657 3.27l-0.961-1.126c0 0 1.128-14.435 0.048-21.306-0.985-7.012-1.677-10.601-7.365-14.822-5.768-4.134-13.102-6.837-20.342 1.315-7.095 8.171-7.644 10.332-7.644 22.153 0 12.008 0 31.17 0.834 37.654 0.778 6.6 4.242 25.284 1.741 34.35-2.46 9.097-3.128 9.822-3.128 9.822v0zM497.449 283.789c0 0-6.134-1.389-5.388-16.949 0.693-15.643 1.009-20.26 0.514-27.019-0.514-6.781 0.778-11.597 5.348-11.26 4.586 0.246 7.986 3.788 10.424 13.563 2.686 9.757 3.457 18.675 2.107 27.914-1.175 9.222-0.859 9.594-3.274 12.864-2.291 3.321-5.955 3.218-9.731 0.886v0z"  horiz-adv-x="1024" />

    
    <glyph glyph-name="tubiao" unicode="&#58928;" d="M437.996 198.481 437.996 198.481 437.996 309.278 327.195 309.278c-61.187 0-110.797-49.61-110.797-110.797 0-61.195 49.61-110.797 110.797-110.797C388.387 87.684 437.996 137.286 437.996 198.481L437.996 198.481 437.996 198.481 437.996 198.481zM493.395 198.481c0-91.789-74.411-166.195-166.2-166.195C235.41 32.286 161 106.692 161 198.481c0 91.789 74.41 166.195 166.195 166.195l110.801 0 55.399 0 0-55.398L493.395 198.481 493.395 198.481 493.395 198.481zM585.723 198.481 585.723 309.278 696.52 309.278c61.195 0 110.796-49.61 110.796-110.797 0-61.195-49.601-110.797-110.796-110.797C635.332 87.684 585.723 137.286 585.723 198.481L585.723 198.481 585.723 198.481zM530.324 198.481c0-91.789 74.41-166.195 166.196-166.195 91.789 0 166.199 74.406 166.199 166.195 0 91.789-74.41 166.195-166.199 166.195L585.723 364.676l-55.399 0 0-55.398L530.324 198.481 530.324 198.481 530.324 198.481zM437.996 567.805l0-110.801L327.195 457.004c-61.187 0-110.797 49.61-110.797 110.801 0 61.188 49.61 110.797 110.797 110.797C388.387 678.602 437.996 628.993 437.996 567.805L437.996 567.805 437.996 567.805zM493.395 567.805c0 91.785-74.411 166.195-166.2 166.195C235.41 734 161 659.59 161 567.805c0-91.789 74.41-166.199 166.195-166.199l110.801 0 55.399 0 0 55.398L493.395 567.805 493.395 567.805 493.395 567.805zM585.723 567.805l0-110.801L696.52 457.004c61.195 0 110.796 49.61 110.796 110.801 0 61.188-49.601 110.797-110.796 110.797C635.332 678.602 585.723 628.993 585.723 567.805L585.723 567.805 585.723 567.805zM530.324 567.805 530.324 567.805C530.324 659.59 604.734 734 696.52 734c91.789 0 166.199-74.41 166.199-166.195 0-91.789-74.41-166.199-166.199-166.199L585.723 401.606l-55.399 0 0 55.398L530.324 567.805 530.324 567.805 530.324 567.805zM530.324 567.805"  horiz-adv-x="1024" />

    
    <glyph glyph-name="baidu1" unicode="&#58913;" d="M603.131557 218.199837l-41.990347 0s-5.385661 3.331885-5.38566 12.722765l0 88.091315-47.356565-0.604774 0-98.002035s4.563946-25.894763 38.895869-25.894763l79.526241 0L626.821095 312.933431 603.130533 312.933431l0-94.733594zM461.021955 312.933431l-44.414559 0s-40.995693 1.62194-55.359842-44.867883c-4.975315-31.022551 4.457522-42.857087 6.100952-46.771234 1.665942-3.872191 14.904455-26.782993 48.155766-26.782993l69.205175 0L484.709447 372.706793l-23.688515 0.520863 0-60.294225zm0-94.733594l-35.023678 0s-21.570271 0.606821-28.211528 25.442462c-3.331885 11.096732 0.520863 21.699208 2.25025 26.693965 1.62194 4.977361 8.847505 18.909675 23.774473 18.909675l37.210483 0 0-71.046102zM511.51393 829.308065c-245.932202 0-445.285552-199.375863-445.285553-445.308065S265.582751-61.308065 511.51393-61.308065s445.285552 199.375863 445.285552 445.308065S757.446132 829.308065 511.51393 829.308065zm27.151383-236.326427c3.546779 32.385595 42.271756 82.078367 73.316819 74.982762 30.934546-7.05365 59.167564-48.113811 53.435003-83.420944-5.582135-35.369555-33.683147-82.034365-77.406974-76.323293-43.656289 5.582135-53.543474 45.127803-49.344848 84.761475zm-91.575672 89.12997c32.711006 0 59.167564-37.663808 59.167565-84.154655 0-46.533826-26.457582-84.198657-59.167565-84.198657-32.667004 0-59.167564 37.663808-59.167564 84.198657-0.001023 46.489824 26.500561 84.154655 59.167564 84.154655zM262.553765 482.715279s6.989181 69.292156 54.928006 73.576739c38.096666 3.26537 66.135256-38.422078 69.054749-62.263066 1.796926-15.467273 9.842159-86.252433-49.389873-98.994641-59.103096-12.700253-81.080643 55.683207-74.592882 87.680968zm450.888153-298.394041c-32.407084-76.365248-150.830217-36.68962-150.830217-36.68962s-43.676755 14.018272-94.342691 2.791579c-50.688449-11.338233-94.38874-7.031137-94.388741-7.031137s-59.277058-1.428535-76.172867 73.467245c-16.874319 74.982762 59.167564 116.042923 64.859194 123.030058 5.602601 7.095605 45.082778 33.943067 70.39528 76.345806 25.440415 42.444694 101.504812 76.387761 155.048285-7.009648 39.483246-56.593949 107.130949-108.947318 107.130949-108.947318s50.665936-39.612183 18.300808-115.956965zm-9.886161 173.97945c-64.878636-1.473561-67.626213 43.829228-67.626213 76.279291 0 34.008558 6.987135 82.10088 59.21259 82.100879 52.136428 0 66.177212-50.947346 66.177211-67.865667 0-17.026792 7.117095-89.088014-57.763588-90.514503z"  horiz-adv-x="1024" />

    
    <glyph glyph-name="biaoge" unicode="&#59061;" d="M135.168 404.48h348.16v389.12h-266.24c-45.056 0-81.92-36.864-81.92-81.92v-307.2z m0-40.96v-307.2c0-45.056 36.864-81.92 81.92-81.92h266.24v389.12h-348.16z m389.12-389.12h266.24c45.056 0 81.92 36.864 81.92 81.92v307.2h-348.16v-389.12z m348.16 430.08v116.736c0 12.288 8.192 20.48 20.48 20.48s20.48-8.192 20.48-20.48V56.32c0-67.584-55.296-122.88-122.88-122.88h-573.44c-67.584 0-122.88 55.296-122.88 122.88v655.36c0 67.584 55.296 122.88 122.88 122.88h573.44c67.584 0 122.88-55.296 122.88-122.88v-18.432c0-12.288-8.192-20.48-20.48-20.48s-20.48 8.192-20.48 20.48v18.432c0 45.056-36.864 81.92-81.92 81.92h-266.24v-389.12h348.16z"  horiz-adv-x="1024" />

    
    <glyph glyph-name="qq" unicode="&#58929;" d="M330.048811 403.911044l-0.969942 2.984377-0.778872 3.915345-0.540034 2.155539 0 8.804431 0.932368 3.45206 0.967344 3.688899 1.240759 3.834001 1.688855 4.271504 2.231487 4.462375 3.14087 4.457378 0 3.14087 0.308791 2.915024 0.467683 3.989695 1.359478 4.422402 1.240759 4.854709 0.984732 2.210901 1.148821 2.070196 1.469404 2.311833 1.59352 1.683259 0 11.035518 0.92977 5.683547 0.92937 6.59353 1.668269 7.894647 2.288848 8.206436 1.705843 4.512341 1.689455 4.930057 1.841152 4.577896 2.213499 4.925061 2.249475 5.356768 2.597239 5.055572 2.909427 5.376755 3.6871 5.372358 1.685857 3.060525 1.823763 2.542676 3.93733 5.668157 4.032666 5.659163 4.618868 5.839441 4.927059 5.683746 5.352371 5.582615 5.585613 5.764092 6.748425 6.206192 4.309678 3.764048 5.216463 4.055251 5.293411 3.608553 5.739109 3.447063 5.511263 3.065322 6.205193 2.522889 6.595528 3.161257 6.558553 2.150542 6.553157 2.216497 7.060613 2.211101 7.058215 1.703245 7.446951 1.377066 7.534492 1.220572 14.878313 2.02063 7.915633 0.42711L537.225745 636.014078l7.798712-0.969942 7.829691-0.92977 7.995579-0.854421 7.406978-1.763804 7.833689-1.688455 7.358011-1.899712 8.050542-2.150542 7.367005-2.623621 7.056216-2.984377 7.526897-3.14147 6.885332-3.45206 6.674475-3.824007 6.537568-4.226534 5.66316-3.899356 2.598238-2.231487 2.759129-1.60791 5.226456-4.462974 4.426998-4.281497 4.382029-4.441988 4.30708-4.925261 3.527608-4.73379 4.191158-4.929658 2.949001-5.271426 2.965989-4.694217 3.159858-5.432317 2.599238-4.769366 4.422002-10.050186 2.171528-5.196477 1.687856-4.829326 1.687856-5.215864 1.512974-4.910071 1.085264-4.211145 1.35708-5.00061 2.402371-8.87938 1.536958-7.759139 0.986331-7.50791 0.853421-6.049898 1.362077-9.211754 0.305793-1.452016 1.086264-1.688855 2.914024-4.754377 1.860738-3.20023 1.667869-3.3927 2.130555-3.588167 1.864736-4.30648 1.200186-4.462375 1.317107-4.809339 1.010315-4.98502 0.467683-2.462331 0.391734-2.984976 0-2.603235-0.391734-2.618625 0-3.235806-0.779472-3.120884-1.396053-6.075281-1.593919-3.060525-1.156216-3.457656 0-0.829038 0.538635-1.070674 1.591921-2.542276 6.905318-10.202083 5.467293-7.658208 2.598238-5.140914 3.532605-5.608198 3.065921-6.113855 3.527608-6.589532 3.532605-7.375999 3.975305-8.342344 2.231487-5.136517 2.054607-4.98462 1.78479-5.297408 1.748814-4.752778 1.316108-4.98562 1.35708-4.673831 1.708841-9.130809 1.356081-9.352659 0.930369-8.280386 0-11.659095-0.617581-4.151185-0.895393-7.116175-1.241158-6.441633-1.899712-5.810061-0.698526-2.391379-1.316108-2.855064-1.126236-1.974661-1.476999-2.468326-1.317107-1.526965-1.667869-2.000644-1.477998-1.606911-1.586924-1.377066-1.900711-0.834434-1.707842-0.854421-1.398052-0.461687-2.130555 0-1.377066 0.461687-2.618225 1.301118-1.200186 0.829438-1.242158 0.935366-1.37107 1.241158-1.382063 1.35708-2.287449 2.53628-2.718157 3.589566-2.131555 3.708486-2.134553 2.96399-2.075593 3.452659-2.930013 6.145833-3.296765 6.382673-0.386738 0.216853-0.542632 0-1.361077-0.985332-0.774475-1.688855-1.276135-2.075593-2.252473-6.210789-3.376711-8.825017-4.342056-10.567835-3.260789-5.312398-3.432673-5.507266-4.050254-6.211788-4.312076-6.070884-2.210501-2.753133-2.674187-2.985976-6.15083-6.069885 0.543631-0.523645 0.833435-0.853421 3.065921-1.838753 12.804319-6.130843 5.588011-3.145867 5.311399-3.065921 5.277422-3.840396 4.692818-3.989295 2.291446-1.748814 1.703845-2.080589 1.748814-2.381385 1.473001-2.598238 0.773476-2.156538 0.970342-2.613228 0.391734-2.211501 0.462686-2.603235-0.462686-1.768801 0-1.758808-0.391734-1.848747-0.970342-1.678862-0.386738-1.317107-0.854421-1.596917-2.322425-3.14087-2.135552-2.543276-1.667869-1.914702-1.397053-1.381064-3.527608-2.599238-3.995291-2.230488-4.271104-2.151541-4.538923-2.069597-5.120528-1.980657-2.719156-0.853421-2.437347-0.684536-5.899-1.37107-6.130843-1.322104-6.130843-1.296121-6.669478-1.07627-6.904319-0.306792-7.060213-0.849424L623.882991 123.481376l-7.910637 0.467683-7.372002 0.694529-7.915633 1.070274-7.869664 0.833435-8.301372 1.156216-8.030555 1.999644-7.839685 1.537957-7.793716 2.206504-7.995579 2.855064-7.834688 2.386382-4.110213 1.352083-3.683503 1.321104-2.332419 0.915379-2.28545 0.441701-6.51858 0-7.522899 0.542632-3.824407 0.391734-4.909671 0.543631-3.14087-2.835078-4.30708-2.673188-5.821453-2.854065-6.454624-3.527608-3.924739-1.919698-4.07084-1.517971-9.042869-3.679505-4.907273-1.241158-5.140914-1.381064-7.141558-1.377066-4.456978-0.387737-4.730793-0.386738-4.928658-0.541633-5.740508-0.231843-23.448502 0-13.249417 0.231843-12.841693 1.316108-6.512984 0.913381-12.414983 1.844749-6.130843 1.241158-5.684146 1.819766-5.680549 1.322104-5.120528 2.055606-4.847114 1.919698-4.499949 2.150542-3.917744 2.371392-3.919343 2.844072-1.319106 1.377066-1.743818 1.668869-1.319106 1.477998-1.203784 1.687856-1.087862 1.687856-0.851822 1.683858-1.22377 3.592564-0.444698 1.860738-0.542632 2.055606 0 1.923696 0.542632 2.150542 0 2.150542 0.444698 2.151541 0 4.29209 0.213855 2.306436 1.009715 2.599238 0.851822 2.602236 1.550549 3.134875 1.125237 1.247154 0.932368 1.376067 2.442344 2.985976 1.939685 1.531961 1.821165 1.086264 1.688855 1.35708 2.696172 0.853421 2.130555 1.302117 2.678584 1.377066 3.065322 0.933367 3.065522 0.925373 3.530606 0.754488 3.371714 0.447696 3.998289 0.546629 4.30608 0.306792 1.143225 0.391734 0.233841 0 0.543232 0.45769 0 0.532639-0.776873 1.065278-2.306836 1.086264-5.741108 4.98462-3.841995 3.064922-4.459976 3.889363-4.499949 4.393022-4.693818 5.577219-5.352371 6.286738-2.017032 3.3927-2.678784 3.512618-2.28645 4.075237-2.057605 4.462974-2.794505 4.201152-1.821365 4.834722-2.150942 4.82373-2.156138 5.377354-1.587923 5.115532-1.475 6.382673-0.464685 0.230843-0.447297 0-0.231243 0.452693-0.542632 0-0.911982-0.452693-0.465285-0.230843-0.622978-1.065278-0.230843-1.316108-0.465085-1.146223-0.814448-1.919698-2.64081-4.673831-1.35648-2.855064-2.15354-2.441345-2.306436-2.985976-2.522889-3.300762-2.675586-2.910027-3.14127-2.829082-2.929414-2.679184-3.20123-2.089583-3.527608-2.216497-3.37711-1.316108-3.995291-0.991328-3.919343-0.365752-0.92937 0-0.894793 0.365752-0.696128 1.532961-1.16581 0.779472-1.510376 3.683503-0.931968 1.974661-1.007717 2.855064-0.833835 2.96399-0.447297 2.93501-1.241758 6.663482-0.464685 3.925339 0 12.874271 0.464685 9.584502 0.776474 4.903675 0.912381 5.065566 0.833835 5.447307 1.472602 5.045579 1.668869 5.85503 1.705843 5.66316 2.291446 5.819055 2.15354 5.603201 2.96499 5.684146 2.793706 6.130843 3.374712 5.739109 3.974705 6.211788 4.05565 5.602202 4.229133 6.204793 3.529607 4.272104 4.520335 5.004607 4.751778 4.965234 2.211101 2.387381 2.696172 2.693774 3.897358 3.376711 3.99729 3.45206 6.515582 5.819454 4.924661 3.603557L330.048811 403.911044zM510.556027-63.477266c-60.721231 0-119.603109 11.889939-175.042321 35.332844-53.542098 22.649644-101.624299 55.061668-142.910307 96.349475-41.287807 41.288806-73.703429 89.36621-96.350474 142.90571-23.448102 55.434216-35.338041 114.311297-35.338041 174.990357 0 60.690652 11.892337 119.57273 35.338041 175.011342 22.647045 53.5405 55.062468 101.617903 96.350474 142.900713 41.285808 41.287807 89.370607 73.701231 142.910307 96.345478 55.44221 23.448102 114.32129 35.338041 175.042321 35.338041 60.696648 0 119.577726-11.889939 175.011942-35.338041 53.545696-22.644047 101.627896-55.057471 142.915703-96.345478 41.28281-41.28301 73.700831-89.36521 96.350474-142.900713 23.448102-55.438812 35.333044-114.315694 35.333044-175.011342 0-60.674263-11.889939-119.556141-35.333044-174.990357-22.649644-53.544497-55.067464-101.616904-96.350474-142.90571-41.288007-41.287807-89.370207-73.699832-142.915703-96.349475C630.133553-51.587328 571.252675-63.477266 510.556027-63.477266L510.556027-63.477266zM510.556027 809.937358c-233.740524 0-423.881608-190.128093-423.881608-423.831043 0-233.696554 190.138686-423.825047 423.881608-423.825047 233.712943 0 423.855626 190.128693 423.855626 423.825047C934.411453 619.809065 744.273966 809.937358 510.556027 809.937358z"  horiz-adv-x="1024" />

    
    <glyph glyph-name="weixin" unicode="&#58930;" d="M512.73678-72.402751c-246.990301 0-447.905216 200.953801-447.905216 447.911356 0 246.943228 200.914916 447.898053 447.905216 447.898053 246.947322 0 447.904193-200.953801 447.904193-447.898053C960.640973 128.550027 759.684102-72.402751 512.73678-72.402751zM512.73678 806.167019c-237.487879 0-430.665577-193.171558-430.665577-430.658414s193.177698-430.658414 430.665577-430.658414c237.4449 0 430.664553 193.171558 430.664553 430.658414S750.180658 806.167019 512.73678 806.167019zM615.259782 441.373709c7.009647 0 13.96199-0.534166 20.772093-1.310855-18.720364 87.122243-111.826901 151.754263-217.995943 151.754263-118.79357 0-216.116129-80.980359-216.116129-183.831842 0-59.268872 32.413224-108.029412 86.48063-145.877415l-21.598924-64.989153 75.53944 37.912471c26.998911-5.342682 48.654117-10.849092 75.696006-10.849092 6.752798 0 13.477966 0.314155 20.117177 0.854461-4.188392 14.46034-6.639211 29.570479-6.639211 45.25674C431.512874 364.731144 512.564865 441.373709 615.259782 441.373709zM499.101225 499.943662c16.213263 0 27.027563-10.671037 27.027563-26.948769 0-16.2061-10.813277-27.055193-27.027563-27.055193-16.22759 0-32.483832 10.849092-32.483832 27.055193C466.618417 489.272625 482.873636 499.943662 499.101225 499.943662zM347.824847 445.939701c-16.213263 0-32.598442 10.849092-32.598442 27.055193 0 16.276708 16.384156 26.948769 32.598442 26.948769 16.184611 0 26.912953-10.671037 26.912953-26.948769C374.7378 456.788793 364.009458 445.939701 347.824847 445.939701zM812.484655 272.899646c0 86.424348-86.424348 156.841118-183.504384 156.841118-102.850459 0-183.874821-70.416769-183.874821-156.841118 0-86.573751 81.023338-156.798139 183.874821-156.798139 21.512966 0 43.169195 5.385661 64.796772 10.813277l59.311851-32.483832-16.299221 54.011124C780.214694 180.984237 812.484655 224.181061 812.484655 272.899646zM569.33994 299.955862c-10.770298 0-21.626553 10.714016-21.626553 21.606087 0 10.79281 10.856255 21.609157 21.626553 21.609157 16.3422 0 27.04189-10.81737 27.04189-21.609157C596.381829 310.668855 585.68214 299.955862 569.33994 299.955862zM688.205141 299.955862c-10.685363 0-21.456684 10.714016-21.456684 21.606087 0 10.79281 10.770298 21.609157 21.456684 21.609157 16.22759 0 27.083845-10.81737 27.083845-21.609157C715.290009 310.668855 704.432731 299.955862 688.205141 299.955862z"  horiz-adv-x="1024" />

    


  </font>
</defs>
</svg>
